Loading...
Error

(Hip-Hop, House) M.C. Hammer - U Can't Touch This (Remix) (1990) [FLAC (Tracks+.CUE), Lossless]

Статистика раздачи
Размер:  103 MB   |    Зарегистрирован:  10 месяцев   |    Скачан:  3 раза
Сидов:  1  |  0 KB/s  ]   Личеров:  0  |  0 KB/s  ]

* - сиды/пиры с внешних источников

   
 
Автор Сообщение

Бишеп Пол:Муж

17-Май-2018 16:37

M.C. Hammer - U Can't Touch This (Remix)

Жанр: Hip-Hop, House
Год выпуска: 1990
Источник: CD
Производитель диска: Capitol Records - CDP 560-20 3990 2
Аудиокодек: FLAC
Тип рипа: Tracks+.CUE
Битрейт аудио: lossless
Продолжительность: 00:12:21


Треклист:
01. U Can't Touch This (Video Mix)
02. U Can't Touch This (Lp Version)
03. It's Gone

Код:

Exact Audio Copy V1.0 beta 3 from 29. August 2011

EAC extraction logfile from 27. September 2011, 19:54

Mc Hammer / U Can't Touch This (Remix)

Used drive  : ASUS    DRW-2014L1   Adapter: 0  ID: 1

Read mode               : Secure
Utilize accurate stream : Yes
Defeat audio cache      : Yes
Make use of C2 pointers : No

Read offset correction                      : 6
Overread into Lead-In and Lead-Out          : No
Fill up missing offset samples with silence : Yes
Delete leading and trailing silent blocks   : No
Null samples used in CRC calculations       : Yes
Used interface                              : Native Win32 interface for Win NT & 2000
Gap handling                                : Appended to previous track

Used output format              : User Defined Encoder
Selected bitrate                : 128 kBit/s
Quality                         : High
Add ID3 tag                     : No
Command line compressor         : C:\Program Files (x86)\Exact Audio Copy\Flac\flac.exe
Additional command line options : -8 -V -T "ARTIST=%artist%" -T "TITLE=%title%" -T "ALBUM=%albumtitle%" -T "DATE=%year%" -T "TRACKNUMBER=%tracknr%" -T "GENRE=%genre%" -T "COMMENT=ripped by Andy aka yetiisyou" %source%

TOC of the extracted CD

     Track |   Start  |  Length  | Start sector | End sector
    ---------------------------------------------------------
        1  |  0:00.00 |  4:08.47 |         0    |    18646   
        2  |  4:08.47 |  4:18.65 |     18647    |    38061   
        3  |  8:27.37 |  3:53.55 |     38062    |    55591   

Track  1

     Filename E:\!Rips\M.C. Hammer – U Can't Touch This (Remix) (Capitol Records – CDP 560-20 3990 2) [1990]\01. Mc Hammer - U Can't Touch This (Video Mix).wav

     Pre-gap length  0:00:02.00

     Peak level 91.5 %
     Extraction speed 3.7 X
     Track quality 99.9 %
     Test CRC 78DC3F87
     Copy CRC 78DC3F87
     Track not present in AccurateRip database
     Copy OK

Track  2

     Filename E:\!Rips\M.C. Hammer – U Can't Touch This (Remix) (Capitol Records – CDP 560-20 3990 2) [1990]\02. Mc Hammer - U Can't Touch This (Lp Version).wav

     Pre-gap length  0:00:02.02

     Peak level 95.5 %
     Extraction speed 4.6 X
     Track quality 100.0 %
     Test CRC 62654B56
     Copy CRC 62654B56
     Track not present in AccurateRip database
     Copy OK

Track  3

     Filename E:\!Rips\M.C. Hammer – U Can't Touch This (Remix) (Capitol Records – CDP 560-20 3990 2) [1990]\03. Mc Hammer - It's Gone.wav

     Pre-gap length  0:00:02.69

     Peak level 97.6 %
     Extraction speed 4.4 X
     Track quality 99.9 %
     Test CRC 9CD956AA
     Copy CRC 9CD956AA
     Track not present in AccurateRip database
     Copy OK

None of the tracks are present in the AccurateRip database

No errors occurred

End of status report

---- CUETools DB Plugin V2.1.3

[CTDB TOCID: LiBX4aP1RYqFZx7H_MNtBKecoe4-] disk not present in database, Submit result: LiBX4aP1RYqFZx7H_MNtBKecoe4- has been uploaded

==== Log checksum 49C056B982A89777375B31B847A8A97F852917F439D7875E8F67AA7945C6E2DA ====

Код:

REM GENRE Dance
REM DATE 1990
REM DISCID 1702E503
REM COMMENT "ExactAudioCopy v1.0b3"
PERFORMER "Mc Hammer"
TITLE "U Can't Touch This (Remix)"
FILE "01. Mc Hammer - U Can't Touch This (Video Mix).wav" WAVE
  TRACK 01 AUDIO
    TITLE "U Can't Touch This (Video Mix)"
    PERFORMER "Mc Hammer"
    INDEX 01 00:00:00
  TRACK 02 AUDIO
    TITLE "U Can't Touch This (Lp Version)"
    PERFORMER "Mc Hammer"
    INDEX 00 04:06:45
FILE "02. Mc Hammer - U Can't Touch This (Lp Version).wav" WAVE
    INDEX 01 00:00:00
  TRACK 03 AUDIO
    TITLE "It's Gone"
    PERFORMER "Mc Hammer"
    INDEX 00 04:16:13
FILE "03. Mc Hammer - It's Gone.wav" WAVE
    INDEX 01 00:00:00


Этот торрент недоступен для скачивания без регистрации, однако доступен по публичной magnet-ссылке (источники с публичных трекеров). Перед использованием ссылки прочтите, пожалуйста Пользовательское соглашение, а также как можно дольше оставайтесь на раздаче! Для того, чтобы скачать сам торрент-файл (который видит больше источников), а также для того, чтобы поблагодарить релизера, вам необходимо зарегистрироваться. Если регистрироваться лень - вы можете также попробовать скачать релиз по нашим партнерским ссылкам ниже. Кроме того, зарегистрированным пользователям не показывается всплывающая реклама при скачивании.

[underverse.me].t104300.torrent
Трекер: Зарегистрирован   [ 17.05.2018 16:37 ]  

Статус: проверено (by Бишеп at 17.05.2018 16:45)
Поблагодарили: 1 человек
Тип торрента: публичный - доступные источники с открытых трекеров: 
Размер: 103 MB (занимает 0,02 DVDR, для записи нужно 1 болванка DVDR/RW)
 
 
Похожие темы
Форум Тема Автор Торрент Отв. Посл. сооб.
Electro, Breakbeat, Dubstep (Hip-Hop, Electronic) Lindemann feat. Haftbefehl - Mathematik [EP] (2018) [MP3, 320 kbps CBR] 90ytr90
2 | 0

0 | 347

4

19.12.2018 16:53

Chillout, Lounge, Downtempo (Hip-Hop, Jazz, Chillout) Blazo - Discography (3 Albums, 1 Mixtape 2009-2012) [MP3, 320 kbps] WEB 8ad_R060d
2 | 0

1 | 1862

2

18.01.2014 06:56

Зарубежный Rap, Hip-Hop (Hip-Hop, Jazz, Dub) Stand High Patrol - The Shift (2017) [MP3, 320 kbps CBR] Darkferse
1 | 0

0 | 660

1

10.07.2017 17:34

Зарубежный Rap, Hip-Hop (Hip-Hop, Bay Area Rap) AG Cubano - Cash & Carry (2016) [MP3, 320 kbps] ANDRAKO
1 | 0

0 | 740

1

16.11.2016 07:53

Зарубежный Rap, Hip-Hop (Hip-Hop, Bay Area Rap) K-Loc - Moe Crime (2016) [MP3, 320 kbps] ANDRAKO
1 | 0

0 | 690

1

11.11.2016 15:06

Зарубежный Rap, Hip-Hop (Hip-Hop, Old School, Rap) Kris Kross - Gonna Make U Jump (Greatest Hits) (1998) [MP3, 320 kbps] uzi2009
1 | 0

0 | 2490

6

17.01.2014 21:56

Зарубежный Rap, Hip-Hop (Hip-Hop, Grime) Dizzee Rascal - The Fifth (2013) [MP3, 320 kbps] uzi2009
7 | 1

0 | 1374

6

17.01.2014 22:16

Зарубежный Rap, Hip-Hop (Hip-hop, Jazz Hop) Kero One - Discography (7CD 2006-2012) [MP3, 320 kbps, V2] 8ad_R060d
2 | 0

0 | 1597

2

25.03.2014 07:50

Зарубежный Rap, Hip-Hop (Hip-Hop, West Coast Rap) Quiz - Air Max 90's (2015) [MP3, 320 kbps] ANDRAKO
1 | 0

0 | 807

1

14.11.2016 09:33

Зарубежный Rap, Hip-Hop (Hip-Hop, Rap) Rick Ross - Rather You Than Me (2017) [AAC, 256 kbps VBR] Darkferse
1 | 0

0 | 707

3

05.04.2017 04:44


Яндекс.Метрика powered by Sphinx


В Н И М А Н И Е
Сайт не распространяет и не хранит электронные версии произведений, а лишь бесплатно и без коммерческой выгоды (не требуя взамен платы,
SMS и т.д.) предоставляет доступ к создаваемому пользователями каталогу ссылок на торрент-файлы, которые содержат только списки хеш-сумм.
Убедительная просьба с жалобами обращаться напрямую к пользователю, разместившему торрент файл.

Вверх