Loading...
Error

Перси Джексон и похититель молний / Percy Jackson & the Olympians: The Lightning Thief (Крис Коламбус / Chris Columbus) [2010 г., фэнтези, приключения, DVDRip]

Статистика раздачи
Размер:  2,18 GB   |    Зарегистрирован:  9 лет 4 месяца   |    Скачан:  2 раза

Полного источника не было: 8 лет 3 месяца

Сидов:  0  |  0 KB/s  ]   Личеров:  0  |  0 KB/s  ]

* - сиды/пиры с внешних источников

   
 
Автор Сообщение

GUree Пол:Муж

30-Мар-2010 21:44

Перси Джексон и похититель молний / Percy Jackson & the Olympians: The Lightning Thief


Год выпуска: 2010
Жанр: фэнтези, приключения
Страна: США
Режиссер: Крис Коламбус / Chris Columbus
В ролях: Логан Лерман, Шон Бин, Ума Турман, Пирс Броснан, Кевин МакКидд, Александра Даддарио, Розарио Доусон, Кэтрин Кинер, Стив Кугэн, Джэйк Абель

Сюжет фильма: Главный персонаж — мальчик, узнавший, что его род берет начало от греческого бога. В сопровождении сатира и дочери Афины он отправляется в опасное путешествие, чтобы примирить богов. На протяжении всего фильма храбреца пытается остановить целый сонм мифологических врагов. Его также ждет встреча с отцом и оракулом, предсказывающим предательство друга.

  • Мировая премьера: 2 февраля 2010
  • Российская премьера: 11 февраля 2010, «Фокс»




Личная оценка: 8 - мне понравилось

Качество видео: DVDRip

Продолжительность: 01:53:45
Видео: кодек: x264, формат: mkv, размер кадра: 720x432@1016x432, битрейт: 1926 kbps
Аудио #1: язык: русский, перевод: дублированный (дубляж), кодек: AC3 5.1, битрейт: 384 kbps
Аудио #2: язык: английский, перевод: оригинал, кодек: AC3 5.1, битрейт: 384 kbps
Субтитры #1: тип: вшитые отключаемые, язык: русский, формат: S_TEXT/UTF8
Субтитры #2: тип: вшитые отключаемые, язык: английский, формат: S_TEXT/UTF8

Семпл 1 на multi-up;
Семпл 2 на multi-up;

Релиз группы:






General
Complete name : Percy_Jackson.The_Olympians.The_Lightning_Thief.2010.DVDRip.AVC.mkv
Format : Matroska
File size : 2.18 GiB
Duration : 1h 53mn
Overall bit rate : 2 749 Kbps
Movie name : -=GUree=-
Encoded date : UTC 2010-03-27 20:42:04
Writing application : mkvmerge v3.2.0 ('Beginnings') built on Feb 12 2010 16:46:17
Writing library : libebml v0.7.9 + libmatroska v0.8.1

Video
ID : 1
Format : AVC
Format/Info : Advanced Video Codec
Format profile : High@L4.1
Format settings, CABAC : Yes
Format settings, ReFrames : 10 frames
Muxing mode : Container profile=Unknown@4.1
Codec ID : V_MPEG4/ISO/AVC
Duration : 1h 53mn
Bit rate : 1 926 Kbps
Nominal bit rate : 1 979 Kbps
Width : 720 pixels
Height : 432 pixels
Display aspect ratio : 2.35:1
Frame rate : 25.000 fps
Resolution : 8 bits
Colorimetry : 4:2:0
Scan type : Progressive
Bits/(Pixel*Frame) : 0.248
Stream size : 1.53 GiB (70%)
Writing library : x264 core 79 r1342kMod e8501ef
Encoding settings : cabac=1 / ref=10 / deblock=1:-2:-1 / analyse=0x3:0x113 / me=tesa / subme=10 / psy=1 / psy_rd=1.0:0.4 / mixed_ref=1 / me_range=32 / chroma_me=1 / trellis=2 / 8x8dct=1 / cqm=0 / deadzone=21,11 / chroma_qp_offset=-4 / threads=6 / nr=0 / decimate=0 / mbaff=0 / constrained_intra=0 / bframes=8 / b_pyramid=0 / b_adapt=2 / b_bias=0 / direct=3 / wpredb=1 / wpredp=2 / keyint=250 / keyint_min=25 / scenecut=40 / rc_lookahead=60 / rc=2pass / mbtree=1 / bitrate=1979 / ratetol=1.0 / qcomp=0.60 / qpmin=10 / qpmax=51 / qpstep=4 / cplxblur=20.0 / qblur=0.5 / vbv_maxrate=50000 / vbv_bufsize=50000 / ip_ratio=1.40 / aq=1:1.00
Language : English

Audio #1
ID : 2
Format : AC-3
Format/Info : Audio Coding 3
Codec ID : A_AC3
Duration : 1h 53mn
Bit rate mode : Constant
Bit rate : 384 Kbps
Channel(s) : 6 channels
Channel positions : Front: L C R, Side: L R, LFE
Sampling rate : 48.0 KHz
Video delay : 8ms
Stream size : 312 MiB (14%)
Title : AC3 5.1 384Kb/s
Language : Russian

Audio #2
ID : 3
Format : AC-3
Format/Info : Audio Coding 3
Codec ID : A_AC3
Duration : 1h 53mn
Bit rate mode : Constant
Bit rate : 384 Kbps
Channel(s) : 6 channels
Channel positions : Front: L C R, Side: L R, LFE
Sampling rate : 48.0 KHz
Stream size : 312 MiB (14%)
Title : AC3 5.1 384Kb/s
Language : English

Text #1
ID : 4
Format : UTF-8
Codec ID : S_TEXT/UTF8
Codec ID/Info : UTF-8 Plain Text
Language : Russian

Text #2
ID : 5
Format : UTF-8
Codec ID : S_TEXT/UTF8
Codec ID/Info : UTF-8 Plain Text
Language : English

Этот торрент недоступен для скачивания без регистрации, однако доступен по публичной magnet-ссылке (источники с публичных трекеров). Перед использованием ссылки прочтите, пожалуйста Пользовательское соглашение, а также как можно дольше оставайтесь на раздаче! Для того, чтобы скачать сам торрент-файл (который видит больше источников), а также для того, чтобы поблагодарить релизера, вам необходимо зарегистрироваться. Если регистрироваться лень - вы можете также попробовать скачать релиз по нашим партнерским ссылкам ниже. Кроме того, зарегистрированным пользователям не показывается всплывающая реклама при скачивании.

[underverse.su].t9662.torrent
Трекер: Зарегистрирован   [ 30.03.2010 21:44 ]  

Статус: проверено (by GUree at 30.03.2010 21:50)
Поблагодарили: пока никто не поблагодарил...
Тип торрента: публичный - доступные источники с открытых трекеров: 
Размер: 2,18 GB (занимает 1/2 DVDR, для записи нужно 1 болванка DVDR/RW)
 
 
Похожие темы
Форум Тема Автор Торрент Отв. Посл. сооб.
Зарубежное кино [DVDRip, Low-Res HDRip, и т.д.] Перси Джексон и Море чудовищ / Percy Jackson: Sea of Monsters (Тор Фройденталь) [2013 г., фэнтези, приключения, семейный, HDRip] Dub + Original 90ytr90
5 | 0

0 | 746

17

28.11.2013 05:01

Зарубежное кино [DVDRip, Low-Res HDRip, и т.д.] Перси Джексон и Море чудовищ / Percy Jackson: Sea of Monsters (Тор Фройденталь) [2013 г., фэнтези, приключения, семейный, BDRip-AVC] Dub +Original + Subs 90ytr90
1 | 0

0 | 867

25

28.11.2013 17:16

Зарубежное кино [HDDVDRip / BDRip / WEB-DL / HDTV 1080/720р] Перси Джексон и похититель молний / Percy Jackson & the Olympians: The Lightning Thief (Крис Коламбус) [2010 г., фэнтези, детектив, приключения, BDRip 720p] H. Ledger
3 | 0

0 | 1373

50

02.05.2012 09:47

Зарубежное кино [HDDVDRip / BDRip / WEB-DL / HDTV 1080/720р] Перси Джексон и Море чудовищ / Percy Jackson: Sea of Monsters (Тор Фройденталь) [2013 г., фэнтези, приключения, семейный, BDRip 1080p] Dub +Ukr + Original + Subs 90ytr90
2 | 0

0 | 773

4

28.11.2013 16:54

Архив (художественные фильмы) Перси Джексон и похититель молний / Percy Jackson the Olympians: The Lightning Thief (Крис Коламбус) [2010 г., фэнтези, приключения, DVDRip] GanibalKing
0 | 0

2 | 1189

3

12.11.2010 23:48

Архив (художественные фильмы) Перси Джексон и похититель молний / Percy Jackson & the Olympians: The Lightning Thief (Крис Коламбус) [2010 г., фэнтези, приключения,DVDRip|Рус, Укр] BartSimpson
0 | 0

1 | 1135

6

05.11.2011 14:44

Архив (зарубежное кино высокого качества) Перси Джексон и похититель молний / Percy Jackson & the Olympians: The Lightning Thief (Крис Коламбус / Chris Columbus ) [2010 г., Фэнтези, приключения , DVD-9] andrej-ku
0 | 0

1 | 1569

1

12.11.2010 23:48

Архив (зарубежное кино высокого качества) Перси Джексон и Море чудовищ / Percy Jackson: Sea of Monsters (Тор Фройденталь) [2013 г., фэнтези, приключения, семейный, BDRip 720p] Dub +Ukr + Original + Subs 90ytr90
1 | 0

1 | 769

11

31.01.2018 17:40

Архив (зарубежное кино высокого качества) Перси Джексон и Море чудовищ / Percy Jackson: Sea of Monsters (Тор Фройденталь) [2013 г., фэнтези, приключения, семейный, BDRip 720p] Dub +Original + Subs 90ytr90
1 | 0

1 | 851

25

31.01.2018 17:40

Архив (зарубежное кино высокого качества) Перси Джексон и Море чудовищ в 3Д / Percy Jackson: Sea of Monsters 3D (Тор Фройденталь / Thor Freudenthal) [2013 г., Фэнтези, Приключения, Семейный, BDRip 1080p] OverUnder / Вертикальная стереопара nemos
0 | 0

2 | 2872

14

31.01.2018 17:40



Последний раз редактировалось: GUree (05.12.2010 00:12), всего редактировалось 2 раз(а)

GUree Пол:Муж

03-Май-2010 10:54

Эта хрень на Т.ру скачана 15000 раз - сидов под 2000, а тут только 1!? :o

maddd Пол:Муж

03-Май-2010 12:32

GUree
как ты правильно заметил

GUree писал(а):

Эта хрень
ну и

Цитата:

Зарегистрированных пользователей: 5,069,649

Цитата:

Всего зарегистрированных пользователей: 30353
добавлено спустя 37 секунд:

А фильм неочен
сказка... :bad:

Sammol04 

12-Ноя-2010 20:45

Раздающего в студию.

Sammol04 

02-Дек-2010 09:20

Изменений нет

GUree Пол:Муж

02-Дек-2010 09:33

Sammol04 писал(а):

Изменений нет
что не так?
Я целыми днями тута...

05-Ноя-2011 14:45

Топик был перенесен из форума Зарубежное кино AVC в форум Архив


[cron robot]
 

Яндекс.Метрика powered by Sphinx


В Н И М А Н И Е
Сайт не распространяет и не хранит электронные версии произведений, а лишь бесплатно и без коммерческой выгоды (не требуя взамен платы,
SMS и т.д.) предоставляет доступ к создаваемому пользователями каталогу ссылок на торрент-файлы, которые содержат только списки хеш-сумм.
Убедительная просьба с жалобами обращаться напрямую к пользователю, разместившему торрент файл.

Вверх