Loading...
Error

(Baroque, Chamber, Violin Concerto) Галерея классической музыки: Антонио Вивальди - Времена года / Antonio Vivaldi - The Four Seasons (2001) [FLAC (Image+.CUE), lossless]

Статистика раздачи
Размер:  151 MB   |    Зарегистрирован:  9 лет 1 месяц   |    Скачан:  37 раз

Полного источника не было: 6 месяцев

Сидов:  0  |  0 KB/s  ]   Личеров:  0  |  0 KB/s  ]

* - сиды/пиры с внешних источников

   
 
Автор Сообщение

M-i-i-i-ke Пол:Муж

04-Июл-2010 09:02

Антонио Вивальди - Времена года / Antonio Vivaldi - The Four Seasons



Год выпуска: 2001
Жанр: Baroque, Chamber, Violin Concerto
Производитель диска: Grand Records, Россия
Аудиокодек: FLAC
Тип рипа: Image+.CUE
Битрейт аудио: lossless
Продолжительность: 00:40:21


Треклист:
Concerto No.1 Op.8 in E Major, 'Spring,' RV 269:
01. I. Allegro
02. II. Largo
03. III. Allegro
Concerto No.2 Op.8 in G Minor, 'Summer,' RV 315:
04. I. Allegro non molto
05. II. Adagio. Presto
06. III. Presto
Concerto No.3 Op.8 in F Major, 'Autumn,' RV 293:
07. I. Allegro
08. II. Adagio molto
09. III. Allegro
Concerto No.4 Op.8 in F Minor, 'Winter,' RV 297:
10. I. Allegro non molto
11. II. Largo
12. III. Allegro
Exact Audio Copy V0.99 prebeta 5 from 4. May 2009

EAC extraction logfile from 10. April 2010, 21:00

Antonio Vivaldi / The Four Seasons

Used drive : ASUS DRW-1604P Adapter: 0 ID: 1

Read mode : Secure
Utilize accurate stream : Yes
Defeat audio cache : Yes
Make use of C2 pointers : No

Read offset correction : 48
Overread into Lead-In and Lead-Out : No
Fill up missing offset samples with silence : Yes
Delete leading and trailing silent blocks : No
Null samples used in CRC calculations : Yes
Used interface : Installed external ASPI interface

Used output format : User Defined Encoder
Selected bitrate : 128 kBit/s
Quality : High
Add ID3 tag : No
Command line compressor : C:\Program Files\Exact Audio Copy\Flac\flac.exe
Additional command line options : -T "DATE=%y" -T "GENRE=%m" -8 -V %s

TOC of the extracted CD

Track | Start | Length | Start sector | End sector
---------------------------------------------------------
1 | 0:00.00 | 3:25.32 | 0 | 15406
2 | 3:25.32 | 2:38.43 | 15407 | 27299
3 | 6:04.00 | 4:12.07 | 27300 | 46206
4 | 10:16.07 | 5:20.35 | 46207 | 70241
5 | 15:36.42 | 2:37.15 | 70242 | 82031
6 | 18:13.57 | 2:46.43 | 82032 | 94524
7 | 21:00.25 | 4:46.00 | 94525 | 115974
8 | 25:46.25 | 2:36.62 | 115975 | 127736
9 | 28:23.12 | 3:22.30 | 127737 | 142916
10 | 31:45.42 | 3:15.58 | 142917 | 157599
11 | 35:01.25 | 2:26.25 | 157600 | 168574
12 | 37:27.50 | 2:53.64 | 168575 | 181613

Range status and errors

Selected range

Filename E:\~Ѡ⯷驠מּ\ή㡿 ࡯로CDImage.wav

Peak level 98.3 %
Range quality 100.0 %
Copy CRC D12C160B
Copy OK

No errors occurred

End of status report
AUDIOCHECKER v2.0 beta (build 457) - by Dester - opdester@freemail.hu
~~~~~~~~~~~~~~~~~~~~~~~~~~~~~~~~~~
-=== DO NOT EDIT THIS FILE! ===-

Path: ...\ή㡿 ࡯렍

1 -=- CDImage.flac -=- CDDA (100%)

32314260


Thanks to -Freeman-

Этот торрент недоступен для скачивания без регистрации, однако доступен по публичной magnet-ссылке (источники с публичных трекеров). Перед использованием ссылки прочтите, пожалуйста Пользовательское соглашение, а также как можно дольше оставайтесь на раздаче! Для того, чтобы скачать сам торрент-файл (который видит больше источников), а также для того, чтобы поблагодарить релизера, вам необходимо зарегистрироваться. Если регистрироваться лень - вы можете также попробовать скачать релиз по нашим партнерским ссылкам ниже. Кроме того, зарегистрированным пользователям не показывается всплывающая реклама при скачивании.

[underverse.su].t10880.torrent
Трекер: Зарегистрирован   [ 04.07.2010 09:02 ]  

Статус: проверено (by M-i-i-i-ke at 04.07.2010 09:03)
Поблагодарили: 2 человека
Тип торрента: публичный - доступные источники с открытых трекеров: 
Размер: 151 MB (занимает 0,03 DVDR, для записи нужно 1 болванка DVDR/RW)
 
 

Fdc 

19-Мар-2011 05:36

Спасибо!

31-Янв-2018 21:20

Топик был перенесен из форума Оркестровая музыка (Lossless) в форум Архив (HQ классическая музыка)


[cron robot]
 

Яндекс.Метрика powered by Sphinx


В Н И М А Н И Е
Сайт не распространяет и не хранит электронные версии произведений, а лишь бесплатно и без коммерческой выгоды (не требуя взамен платы,
SMS и т.д.) предоставляет доступ к создаваемому пользователями каталогу ссылок на торрент-файлы, которые содержат только списки хеш-сумм.
Убедительная просьба с жалобами обращаться напрямую к пользователю, разместившему торрент файл.

Вверх