Loading...
Error

Куджо / Cujo (Льюис Тиг) [1983 г., ужасы, триллер, BDRip-AVC] MVO

Статистика раздачи
Размер:  746 MB   |    Зарегистрирован:  2 месяца 10 дней   |    Скачан:  3 раза

Полного источника не было: 2 месяца 1 день

Сидов:  0  |  0 KB/s  ]   Личеров:  0  |  0 KB/s  ]

* - сиды/пиры с внешних источников

   
 
Автор Сообщение

Parallelo Пол:Муж

11-Янв-2019 08:01

Куджо / Cujo


Год выпуска: 1983
Жанр: Ужасы, триллер
Режиссёр: Льюис Тиг
В ролях: Ди Уоллес-Стоун, Дэнни Пинтауро, Дэниэл Хью Келли, Кристофер Стоун, Эд Лотер, Каюлани Ли, Билли Джейн, Миллс Уотсон, Сэнди Уорд, Джерри Хардин, Мерритт Олсен, Артур Розенберг, Терри Донован-Смит, Роберт Элросс, Роберт Белинг, Клер Ноно, Дэниэл Н. Блатт

Описание: Экранизация одноимённого романа Стивена Кинга. История о сенбернаре по кличке Куджо, который после укуса летучей мыши сходит с ума и начинает терроризировать семью своих хозяев… Учитывая размеры и мощь собак данной породы, нетрудно догадаться, к каким трагическим последствиям приводит его кровавое сумасшествие. Кульминационным моментом фильма является воистину кошмарная ситуация, когда главная героиня вместе со своим маленьким сыном вынуждена столкнуться лицом к морде с этим вылакавшим уже изрядное количество крови монстром...



Страна: США
Производство: Sunn Classic Pictures Inc., TAFT Entertainment Pictures
Продолжительность: 01:32:46
Перевод: Профессиональный (многоголосый, закадровый) ТВ3

Качество: BDRip-AVC
Формат: MKV
Видео: MPEG-4 AVC, 752x408, - 1047 Кбит/с
Аудио: AAC-HE, 2 ch, - 76 Кбит/с
Общее
Уникальный идентификатор : 227497104427880039138347863853372741709 (0xAB26593BBF05EA53A446998670C3184D)
Полное имя : Cujo.1983.BDRip-AVC.ExKinoRay.mkv
Формат : Matroska
Версия формата : Version 4 / Version 2
Размер файла : 746 Мбайт
Продолжительность : 1 ч. 33 м.
Общий поток : 1121 Кбит/сек
Дата кодирования : UTC 2019-01-06 15:53:44
Программа кодирования : mkvmerge v15.0.0 ('Duel with the Devil') 64-bit
Библиотека кодирования : libebml v1.3.5 + libmatroska v1.4.5

Видео
Идентификатор : 1
Формат : AVC
Формат/Информация : Advanced Video Codec
Профиль формата : High@L4.1
Параметр CABAC формата : Да
Параметр RefFrames формата : 12 кадров
Идентификатор кодека : V_MPEG4/ISO/AVC
Продолжительность : 1 ч. 32 м.
Битрейт : 1047 Кбит/сек
Ширина : 752 пикселя
Высота : 408 пикселей
Соотношение сторон : 1,85:1
Режим частоты кадров : Постоянный
Частота кадров : 23,976 (24000/1001) кадра/сек
Цветовое пространство : YUV
Субдискретизация насыщенности : 4:2:0
Битовая глубина : 8 бит
Тип развёртки : Прогрессивная
Бит/(Пиксели*Кадры) : 0.142
Размер потока : 694 Мбайт (93%)
Библиотека кодирования : x264 core 152 r2851kMod ba24899
Настройки программы : cabac=1 / ref=12 / deblock=1:-3:-2 / analyse=0x3:0x133 / me=umh / subme=10 / psy=1 / fade_compensate=0.00 / psy_rd=1.00:0.18 / mixed_ref=1 / me_range=32 / chroma_me=1 / trellis=2 / 8x8dct=1 / cqm=0 / deadzone=21,11 / fast_pskip=0 / chroma_qp_offset=-3 / threads=6 / lookahead_threads=1 / sliced_threads=0 / nr=0 / decimate=0 / interlaced=0 / bluray_compat=0 / constrained_intra=0 / bframes=11 / b_pyramid=2 / b_adapt=2 / b_bias=0 / direct=3 / weightb=1 / open_gop=0 / weightp=2 / keyint=240 / keyint_min=23 / scenecut=40 / intra_refresh=0 / rc_lookahead=40 / rc=2pass / mbtree=1 / bitrate=1047 / ratetol=1.0 / qcomp=0.60 / qpmin=0 / qpmax=69 / qpstep=4 / cplxblur=20.0 / qblur=0.5 / ip_ratio=1.40 / aq=3:1.00
Default : Да
Forced : Нет

Аудио
Идентификатор : 2
Формат : AAC
Формат/Информация : Advanced Audio Codec
Профиль формата : HE-AAC / LC
Идентификатор кодека : A_AAC
Продолжительность : 1 ч. 33 м.
Битрейт : 76,0 Кбит/сек
Каналы : 2 канала
Расположение каналов : Front: L R
Частота : 48,0 КГц / 24,0 КГц
Частота кадров : 23,438 кадра/сек (1024 SPF)
Метод сжатия : С потерями
Задержка видео : 31 мс.
Размер потока : 50,6 Мбайт (7%)
Default : Да
Forced : Нет

Этот торрент недоступен для скачивания без регистрации, однако доступен по публичной magnet-ссылке (источники с публичных трекеров). Перед использованием ссылки прочтите, пожалуйста Пользовательское соглашение, а также как можно дольше оставайтесь на раздаче! Для того, чтобы скачать сам торрент-файл (который видит больше источников), а также для того, чтобы поблагодарить релизера, вам необходимо зарегистрироваться. Если регистрироваться лень - вы можете также попробовать скачать релиз по нашим партнерским ссылкам ниже. Кроме того, зарегистрированным пользователям не показывается всплывающая реклама при скачивании.

[underverse.name].t124088.torrent
Трекер: Зарегистрирован   [ 11.01.2019 08:01 ]  

Статус: проверено (by Паукан at 11.01.2019 08:09)
Поблагодарили: пока никто не поблагодарил...
Тип торрента: публичный - доступные источники с открытых трекеров: 
Размер: 746 MB (занимает 0,17 DVDR, для записи нужно 1 болванка DVDR/RW)
 
 

Яндекс.Метрика powered by Sphinx


В Н И М А Н И Е
Сайт не распространяет и не хранит электронные версии произведений, а лишь бесплатно и без коммерческой выгоды (не требуя взамен платы,
SMS и т.д.) предоставляет доступ к создаваемому пользователями каталогу ссылок на торрент-файлы, которые содержат только списки хеш-сумм.
Убедительная просьба с жалобами обращаться напрямую к пользователю, разместившему торрент файл.

Вверх