Loading...
Error

Завод (Юрий Быков) [2018 г., криминал, драма, триллер, WEB-DLRip] Original (iTunes)

Статистика раздачи
Размер:  2,05 GB   |    Зарегистрирован:  10 дней   |    Скачан:  12 раз

Полного источника не было: 1 час 58 минут

Сидов:  0  |  0 KB/s  ]   Личеров:  0  |  0 KB/s  ]

* - сиды/пиры с внешних источников

   
 
Автор Сообщение

90ytr90 

14-Мар-2019 18:16

Завод


Завод / The Factory

Страна: Россия Армения Франция
Производство: START, KinoVista, Wild Bunch, Инвада фильм, Шарм Холдинг, Yellow, Black & White
Год выпуска: 2018
Жанр: криминал, драма, триллер
Продолжительность: 01:50:43

Режиссер-постановщик: Юрий Быков
Актеры: Денис Шведов, Андрей Смоляков, Владислав Абашин, Иван Янковский, Александр Бухаров, Алексей Комашко, Александр Баширов

Описание: Прямо посреди дня из своего «мерса» похищен местный олигарх Калугин. Неизвестные в балаклавах потребовали за него большой выкуп. Отвезти деньги берётся глава личной охраны бизнесмена по кличке Туман. Его вооружённые до зубов «спецы» приезжают ночью на завод Калугина, где теперь босса держат в заложниках. Они пока не знают, что те другие, забаррикадировавшиеся в цехе — это местные рабочие во главе с бывшим спецназовцем по прозвищу Седой. Полгода без зарплаты и предстоящее банкротство завода толкнули их на отчаянный шаг.

Чтобы вытащить своего хозяина, «спецы» не остановятся ни перед чем. Но в отличие от них «работягам» больше нечего терять…



Перевод: не требуется (оригинал) | iTunes
Субтитры: нет
Качество: WEB-DLRip
Формат: AVI
Видео кодек: XviD
Аудио кодек: АС3
Видео: 720x304 (2.35:1), 24.000 fps, XviD build 73 ~2 258 kbps avg
Аудио: 48.0 kHz, AC3 Dolby Digital, 3/2 (L,C,R,l,r) + LFE ch, ~384 kbps

Дата премьеры (мир): 7 сентября 2018
Дата премьеры (РФ): 7 февраля 2019, «Централ Партнершип»

Релиз от: порошков
General
Формат : AVI
Формат/Информация : Audio Video Interleave
Профиль формата : OpenDML
Размер файла : 2,05 Гбайт
Продолжительность : 1 ч. 50 м.
Общий поток : 2654 Кбит/сек
Программа кодирования : VirtualDubMod 1.5.10.3 | (build 2550/release)
Библиотека кодирования : VirtualDubMod build 2550/release

Видео
Идентификатор : 0
Формат : MPEG-4 Visual
Профиль формата : Advanced Simple@L5
Настройки формата : BVOP1 / Custom Matrix
Параметр BVOP формата : 1
Параметр QPel формата : Нет
Параметр GMC формата : Без точки перехода
Параметр матрицы формата : Выборочная
Идентификатор кодека : XVID
Идентификатор кодека/Подсказка : XviD
Продолжительность : 1 ч. 50 м.
Битрейт : 2258 Кбит/сек
Ширина : 720 пикселей
Высота : 304 пикселя
Соотношение сторон : 2,35:1
Частота кадров : 24,000 кадра/сек
Цветовое пространство : YUV
Субдискретизация насыщенности : 4:2:0
Битовая глубина : 8 бит
Тип развёртки : Прогрессивная
Метод сжатия : С потерями
Бит/(Пиксели*Кадры) : 0.430
Размер потока : 1,75 Гбайт (85%)
Библиотека кодирования : XviD 73

Аудио
Идентификатор : 1
Формат : AC-3
Формат/Информация : Audio Coding 3
Коммерческое название : Dolby Digital
Идентификатор кодека : 2000
Продолжительность : 1 ч. 50 м.
Вид битрейта : Постоянный
Битрейт : 384 Кбит/сек
Каналы : 6 каналов
Channel layout : L R C LFE Ls Rs
Частота : 48,0 КГц
Частота кадров : 31,250 кадров/сек (1536 SPF)
Битовая глубина : 16 бит
Метод сжатия : С потерями
Размер потока : 304 Мбайт (14%)
Выравнивание : Разделение по промежуткам
Продолжительность промежутка : 42 мс. (1,00 видеокадр)
Время предзагрузки промежутка : 500 мс.

Этот торрент недоступен для скачивания без регистрации, однако доступен по публичной magnet-ссылке (источники с публичных трекеров). Перед использованием ссылки прочтите, пожалуйста Пользовательское соглашение, а также как можно дольше оставайтесь на раздаче! Для того, чтобы скачать сам торрент-файл (который видит больше источников), а также для того, чтобы поблагодарить релизера, вам необходимо зарегистрироваться. Если регистрироваться лень - вы можете также попробовать скачать релиз по нашим партнерским ссылкам ниже. Кроме того, зарегистрированным пользователям не показывается всплывающая реклама при скачивании.

[underverse.name].t128628.torrent
Трекер: Зарегистрирован   [ 14.03.2019 18:16 ]  

Статус: * не проверено
Поблагодарили: пока никто не поблагодарил...
Тип торрента: публичный - доступные источники с открытых трекеров: 
Размер: 2,05 GB (занимает 0,47 DVDR, для записи нужно 1 болванка DVDR/RW)
 
 
Похожие темы
Форум Тема Автор Торрент Отв. Посл. сооб.
* Наше кино [DVDRip, Low-Res HDRip, и т.д.] Завод (Юрий Быков) [2018 г., криминал, драма, триллер, WEBRip-AVC] 90ytr90
43 | 1

0 | 72

5

28.02.2019 17:15

* Наше кино [DVDRip, Low-Res HDRip, и т.д.] Завод (Юрий Быков) [2018 г., криминал, драма, триллер, WEBRip] 90ytr90
2558 | 12

0 | 158

23

28.02.2019 17:09

* Наше кино [DVDRip, Low-Res HDRip, и т.д.] Завод (Юрий Быков) [2018 г., криминал, драма, триллер, WEBRip-AVC] 90ytr90
488 | 8

3 | 318

39

05.03.2019 19:34

* Наше кино [DVDRip, Low-Res HDRip, и т.д.] Завод (Юрий Быков) [2018 г., боевик, драма, триллер, криминал, WEB-DLRip] Original (iTunes) 90ytr90
405 | 15

0 | 377

13

14.03.2019 18:14

* Наше кино [HDDVDRip / BDRip / WEB-DL / HDTV 1080/720р] Завод (Юрий Быков) [2018 г., криминал, драма, триллер, WEBRip 1080p] 90ytr90
1071 | 3

0 | 215

58

28.02.2019 17:09

* Наше кино [HDDVDRip / BDRip / WEB-DL / HDTV 1080/720р] Завод (Юрий Быков) [2018 г., криминал, драма, триллер, WEBRip 720p] 90ytr90
1215 | 12

0 | 132

18

28.02.2019 17:10

* Наше кино [HDDVDRip / BDRip / WEB-DL / HDTV 1080/720р] Завод (Юрий Быков) [2018 г., боевик, драма, триллер, криминал, WEB-DL 1080p] Original (iTunes) 90ytr90
978 | 54

0 | 431

19

14.03.2019 18:15

* Наше кино [HDDVDRip / BDRip / WEB-DL / HDTV 1080/720р] Завод (Юрий Быков) [2018 г., боевик, драма, триллер, криминал, WEB-DL 720p] Original (iTunes) 90ytr90
448 | 33

0 | 387

11

14.03.2019 18:16


Яндекс.Метрика powered by Sphinx


В Н И М А Н И Е
Сайт не распространяет и не хранит электронные версии произведений, а лишь бесплатно и без коммерческой выгоды (не требуя взамен платы,
SMS и т.д.) предоставляет доступ к создаваемому пользователями каталогу ссылок на торрент-файлы, которые содержат только списки хеш-сумм.
Убедительная просьба с жалобами обращаться напрямую к пользователю, разместившему торрент файл.

Вверх