Loading...
Error

(Electronic, Trip Hop, Downtempo) Terranova - B-Sides & Remix Sessions (2002) [FLAC (tracks+.cue), lossless]

Статистика раздачи
Размер:  440 MB   |    Зарегистрирован:  5 лет   |    Скачан:  2 раза

Полного источника не было: 5 месяцев 8 дней

Сидов:  0  |  0 KB/s  ]   Личеров:  0  |  0 KB/s  ]

* - сиды/пиры с внешних источников

   
 
Автор Сообщение

8ad_R060d Пол:Муж

24-Мар-2014 12:00

Terranova - B-Sides & Remix Sessions

Жанр: Electronic, Trip Hop, Downtempo
Год выпуска: 2002
Производитель диска: UK, Copasetik Recordings (CD Matrix: pp1021) *
Аудиокодек: FLAC
Тип рипа: tracks+.cue
Битрейт аудио: lossless
Продолжительность: 01:17:58
Наличие сканов в содержимом раздачи: да
Треклист:

01. Terranova - Just Enough (Stereo MC's Remix) (4:28)
02. Terranova - Tokyo Tower (feat. Manuel Gottsching) (8:22)
03. Terranova - Prozac (Mekon Remix) (5:06)
04. Terranova - Never (4:23)
05. Terranova - Bombing Bastards (feat. Tricky) (4:08)
06. Terranova - Precipice (Aquasky Remix) (6:20)
07. Terranova - Millenium Bug (5:43)
08. Terranova - Clone (feat. Manuel Gottsching) (3:59)
09. Terranova - Chase The Blues (The Psychonauts Remix) (5:38)
10. Terranova - Open Naked Eye (4:14)
11. Terranova - Sweet Bitter Love (feat. Cath Coffey) (4:13)
12. Fanatic - Deep Sleep (Terranova Remix) (3:31)
13. Terranova - Turn Around (feat. Cath Coffey) (Kutmasta Kurt Remix) (4:48)
14. Terranova - Sin Bin (4:08)
15. Terranova - X-Files (feat. Rasco) (4:55)
16. Terranova - Sugarhill (3:55)

* Внимание! Матрица раздаваемого диска и оформление задней обложки отличается от издания, представленного на
Exact Audio Copy V1.0 beta 3 from 29. August 2011

EAC extraction logfile from 25. April 2012, 18:15

Terranova / B-sides & Remix Sessions

Used drive : Optiarc DVD RW AD-7243S Adapter: 1 ID: 0

Read mode : Secure
Utilize accurate stream : Yes
Defeat audio cache : Yes
Make use of C2 pointers : No

Read offset correction : 48
Overread into Lead-In and Lead-Out : No
Fill up missing offset samples with silence : Yes
Delete leading and trailing silent blocks : No
Null samples used in CRC calculations : Yes
Used interface : Native Win32 interface for Win NT & 2000
Gap handling : Appended to previous track

Used output format : User Defined Encoder
Selected bitrate : 1024 kBit/s
Quality : High
Add ID3 tag : No
Command line compressor : C:\Program Files\Exact Audio Copy\Flac\flac.exe
Additional command line options : -V -8 -T "Genre=%genre%" -T "Artist=%artist%" -T "Title=%title%" -T "Album=%albumtitle%" -T "Date=%year%" -T "Tracknumber=%tracknr%" -T "Comment=%comment%" %source%

TOC of the extracted CD

Track | Start | Length | Start sector | End sector
---------------------------------------------------------
1 | 0:00.00 | 4:28.45 | 0 | 20144
2 | 4:28.45 | 8:22.50 | 20145 | 57844
3 | 12:51.20 | 5:06.38 | 57845 | 80832
4 | 17:57.58 | 4:23.30 | 80833 | 100587
5 | 22:21.13 | 4:08.37 | 100588 | 119224
6 | 26:29.50 | 6:20.61 | 119225 | 147785
7 | 32:50.36 | 5:43.16 | 147786 | 173526
8 | 38:33.52 | 3:59.19 | 173527 | 191470
9 | 42:32.71 | 5:38.34 | 191471 | 216854
10 | 48:11.30 | 4:14.62 | 216855 | 235966
11 | 52:26.17 | 4:13.42 | 235967 | 254983
12 | 56:39.59 | 3:31.24 | 254984 | 270832
13 | 60:11.08 | 4:48.05 | 270833 | 292437
14 | 64:59.13 | 4:08.17 | 292438 | 311054
15 | 69:07.30 | 4:55.46 | 311055 | 333225
16 | 74:03.01 | 3:55.22 | 333226 | 350872

Track 1

Filename C:\01. Terranova - Just Enough (Stereo MC's Remix).wav

Pre-gap length 0:00:02.00

Peak level 100.0 %
Extraction speed 2.3 X
Track quality 99.9 %
Test CRC F3C7CB7F
Copy CRC F3C7CB7F
Cannot be verified as accurate (confidence 4) [A352211F], AccurateRip returned [12BD5809] (AR v2)
Copy OK

Track 2

Filename C:\02. Terranova - Tokyo Tower (feat. Manuel Gottsching).wav

Peak level 85.4 %
Extraction speed 2.9 X
Track quality 99.9 %
Test CRC C709D245
Copy CRC C709D245
Cannot be verified as accurate (confidence 4) [E04422D7], AccurateRip returned [E9070FDD] (AR v2)
Copy OK

Track 3

Filename C:\03. Terranova - Prozac (Mekon Remix).wav

Peak level 77.1 %
Extraction speed 3.4 X
Track quality 100.0 %
Test CRC 3E3F7307
Copy CRC 3E3F7307
Cannot be verified as accurate (confidence 4) [86211115], AccurateRip returned [2808904A] (AR v2)
Copy OK

Track 4

Filename C:\04. Terranova - Never.wav

Peak level 88.2 %
Extraction speed 3.5 X
Track quality 100.0 %
Test CRC 0246EECB
Copy CRC 0246EECB
Cannot be verified as accurate (confidence 4) [88FF0AD2], AccurateRip returned [7524C9B0] (AR v2)
Copy OK

Track 5

Filename C:\05. Terranova - Bombing Bastards (feat. Tricky).wav

Peak level 100.0 %
Extraction speed 3.7 X
Track quality 100.0 %
Test CRC ADA5307C
Copy CRC ADA5307C
Cannot be verified as accurate (confidence 4) [8F48B88A], AccurateRip returned [80924E3F] (AR v2)
Copy OK

Track 6

Filename C:\06. Terranova - Precipice (Aquasky Remix).wav

Peak level 100.0 %
Extraction speed 3.7 X
Track quality 99.9 %
Test CRC 67C7CAD5
Copy CRC 67C7CAD5
Cannot be verified as accurate (confidence 4) [08E430E8], AccurateRip returned [A4B6AA07] (AR v2)
Copy OK

Track 7

Filename C:\07. Terranova - Millenium Bug.wav

Peak level 98.0 %
Extraction speed 4.3 X
Track quality 100.0 %
Test CRC D53B9CFB
Copy CRC D53B9CFB
Cannot be verified as accurate (confidence 4) [027DCA5A], AccurateRip returned [5E04E776] (AR v2)
Copy OK

Track 8

Filename C:\08. Terranova - Clone (feat. Manuel Gottsching).wav

Peak level 95.4 %
Extraction speed 4.3 X
Track quality 100.0 %
Test CRC 606FA28F
Copy CRC 606FA28F
Cannot be verified as accurate (confidence 4) [FA26D2E7], AccurateRip returned [1D6CD0BF] (AR v2)
Copy OK

Track 9

Filename C:\09. Terranova - Chase The Blues (The Psychonauts Remix).wav

Peak level 98.0 %
Extraction speed 4.7 X
Track quality 100.0 %
Test CRC 52F5F292
Copy CRC 52F5F292
Cannot be verified as accurate (confidence 4) [E4ABE35A], AccurateRip returned [DB18B1FF] (AR v2)
Copy OK

Track 10

Filename C:\10. Terranova - Open Naked Eye.wav

Peak level 100.0 %
Extraction speed 4.6 X
Track quality 100.0 %
Test CRC 3360280A
Copy CRC 3360280A
Cannot be verified as accurate (confidence 4) [AC6BCDF2], AccurateRip returned [B8109C2B] (AR v2)
Copy OK

Track 11

Filename C:\11. Terranova - Sweet Bitter Love (feat. Cath Coffey).wav

Peak level 100.0 %
Extraction speed 4.8 X
Track quality 100.0 %
Test CRC FD635440
Copy CRC FD635440
Cannot be verified as accurate (confidence 4) [7470EF07], AccurateRip returned [876BB24E] (AR v2)
Copy OK

Track 12

Filename C:\12. Fanatic - Deep Sleep (Terranova Remix).wav

Peak level 100.0 %
Extraction speed 4.8 X
Track quality 100.0 %
Test CRC 3A1BF896
Copy CRC 3A1BF896
Cannot be verified as accurate (confidence 4) [ED105201], AccurateRip returned [7020B24A] (AR v2)
Copy OK

Track 13

Filename C:\13. Terranova - Turn Around (feat. Cath Coffey) (Kutmasta Kurt Remix).wav

Peak level 87.0 %
Extraction speed 5.1 X
Track quality 100.0 %
Test CRC 0E885BA2
Copy CRC 0E885BA2
Cannot be verified as accurate (confidence 4) [5B9AB7F1], AccurateRip returned [29BD01AD] (AR v2)
Copy OK

Track 14

Filename C:\14. Terranova - Sin Bin.wav

Peak level 100.0 %
Extraction speed 5.2 X
Track quality 100.0 %
Test CRC 3BFF882C
Copy CRC 3BFF882C
Cannot be verified as accurate (confidence 4) [D1B717C6], AccurateRip returned [F6345B9A] (AR v2)
Copy OK

Track 15

Filename C:\15. Terranova - X-Files (feat. Rasco).wav

Peak level 78.8 %
Extraction speed 5.5 X
Track quality 100.0 %
Test CRC 1256F081
Copy CRC 1256F081
Cannot be verified as accurate (confidence 4) [D2B7AF3F], AccurateRip returned [A48D66E8] (AR v2)
Copy OK

Track 16

Filename C:\16. Terranova - Sugarhill.wav

Peak level 99.4 %
Extraction speed 5.4 X
Track quality 100.0 %
Test CRC DCD47649
Copy CRC DCD47649
Cannot be verified as accurate (confidence 4) [82B07DC9], AccurateRip returned [2537A429] (AR v2)
Copy OK

No tracks could be verified as accurate
You may have a different pressing from the one(s) in the database

No errors occurred

End of status report

---- CUETools DB Plugin V2.1.3

[CTDB TOCID: 11Qp3zT.VatuUVdYx2NuT7m5v8g-] found, Submit result: 11Qp3zT.VatuUVdYx2NuT7m5v8g- has been confirmed
[70621373] (4/4) Accurately ripped

==== Log checksum BEA0E6ADA50620124C130A4B7BE88D2BD7EF2BB5D5D1467C1C7B702EF6884435 ====
REM DATE 2004
REM DISCID E1124610
REM COMMENT "ExactAudioCopy v1.0b3"
PERFORMER "Terranova"
TITLE "B-sides & Remix Sessions"
FILE "01. Terranova - Just Enough (Stereo MC's Remix).wav" WAVE
TRACK 01 AUDIO
TITLE "Just Enough (Stereo MC's Remix)"
PERFORMER "Terranova"
INDEX 01 00:00:00
FILE "02. Terranova - Tokyo Tower (feat. Manuel Gottsching).wav" WAVE
TRACK 02 AUDIO
TITLE "Tokyo Tower (feat. Manuel Gottsching)"
PERFORMER "Terranova"
INDEX 01 00:00:00
FILE "03. Terranova - Prozac (Mekon Remix).wav" WAVE
TRACK 03 AUDIO
TITLE "Prozac (Mekon Remix)"
PERFORMER "Terranova"
INDEX 01 00:00:00
FILE "04. Terranova - Never.wav" WAVE
TRACK 04 AUDIO
TITLE "Never"
PERFORMER "Terranova"
INDEX 01 00:00:00
FILE "05. Terranova - Bombing Bastards (feat. Tricky).wav" WAVE
TRACK 05 AUDIO
TITLE "Bombing Bastards (feat. Tricky)"
PERFORMER "Terranova"
INDEX 01 00:00:00
FILE "06. Terranova - Precipice (Aquasky Remix).wav" WAVE
TRACK 06 AUDIO
TITLE "Precipice (Aquasky Remix)"
PERFORMER "Terranova"
INDEX 01 00:00:00
FILE "07. Terranova - Millenium Bug.wav" WAVE
TRACK 07 AUDIO
TITLE "Millenium Bug"
PERFORMER "Terranova"
INDEX 01 00:00:00
FILE "08. Terranova - Clone (feat. Manuel Gottsching).wav" WAVE
TRACK 08 AUDIO
TITLE "Clone (feat. Manuel Gottsching)"
PERFORMER "Terranova"
INDEX 01 00:00:00
FILE "09. Terranova - Chase The Blues (The Psychonauts Remix).wav" WAVE
TRACK 09 AUDIO
TITLE "Chase The Blues (The Psychonauts Remix)"
PERFORMER "Terranova"
INDEX 01 00:00:00
FILE "10. Terranova - Open Naked Eye.wav" WAVE
TRACK 10 AUDIO
TITLE "Open Naked Eye"
PERFORMER "Terranova"
INDEX 01 00:00:00
FILE "11. Terranova - Sweet Bitter Love (feat. Cath Coffey).wav" WAVE
TRACK 11 AUDIO
TITLE "Sweet Bitter Love (feat. Cath Coffey)"
PERFORMER "Terranova"
INDEX 01 00:00:00
FILE "12. Fanatic - Deep Sleep (Terranova Remix).wav" WAVE
TRACK 12 AUDIO
TITLE "Deep Sleep (Terranova Remix)"
PERFORMER "Fanatic"
INDEX 01 00:00:00
FILE "13. Terranova - Turn Around (feat. Cath Coffey) (Kutmasta Kurt Remix).wav" WAVE
TRACK 13 AUDIO
TITLE "Turn Around (feat. Cath Coffey) (Kutmasta Kurt Remix)"
PERFORMER "Terranova"
INDEX 01 00:00:00
FILE "14. Terranova - Sin Bin.wav" WAVE
TRACK 14 AUDIO
TITLE "Sin Bin"
PERFORMER "Terranova"
INDEX 01 00:00:00
FILE "15. Terranova - X-Files (feat. Rasco).wav" WAVE
TRACK 15 AUDIO
TITLE "X-Files (feat. Rasco)"
PERFORMER "Terranova"
INDEX 01 00:00:00
FILE "16. Terranova - Sugarhill.wav" WAVE
TRACK 16 AUDIO
TITLE "Sugarhill"
PERFORMER "Terranova"
INDEX 01 00:00:00
AUDIOCHECKER v2.0 beta (build 457) - by Dester - opdester@freemail.hu
~~~~~~~~~~~~~~~~~~~~~~~~~~~~~~~~~~
-=== DO NOT EDIT THIS FILE! ===-

Path: ...\Terranova - B-sides & Remix Sessions

01 -=- 01. Terranova - Just Enough (Stereo MC's Remix).flac -=- CDDA (100%)
02 -=- 02. Terranova - Tokyo Tower (feat. Manuel Gottsching).flac -=- CDDA (100%)
03 -=- 03. Terranova - Prozac (Mekon Remix).flac -=- CDDA (100%)
04 -=- 04. Terranova - Never.flac -=- CDDA (100%)
05 -=- 05. Terranova - Bombing Bastards (feat. Tricky).flac -=- CDDA (100%)
06 -=- 06. Terranova - Precipice (Aquasky Remix).flac -=- CDDA (100%)
07 -=- 07. Terranova - Millenium Bug.flac -=- CDDA (100%)
08 -=- 08. Terranova - Clone (feat. Manuel Gottsching).flac -=- CDDA (100%)
09 -=- 09. Terranova - Chase The Blues (The Psychonauts Remix).flac -=- CDDA (100%)
10 -=- 10. Terranova - Open Naked Eye.flac -=- CDDA (100%)
11 -=- 11. Terranova - Sweet Bitter Love (feat. Cath Coffey).flac -=- CDDA (99%)
12 -=- 12. Fanatic - Deep Sleep (Terranova Remix).flac -=- CDDA (100%)
13 -=- 13. Terranova - Turn Around (feat. Cath Coffey) (Kutmasta Kurt Remix).flac -=- CDDA (100%)
14 -=- 14. Terranova - Sin Bin.flac -=- CDDA (100%)
15 -=- 15. Terranova - X-Files (feat. Rasco).flac -=- CDDA (100%)
16 -=- 16. Terranova - Sugarhill.flac -=- CDDA (43%)

Summary 96,38% CDDA

33110772

Этот торрент недоступен для скачивания без регистрации, однако доступен по публичной magnet-ссылке (источники с публичных трекеров). Перед использованием ссылки прочтите, пожалуйста Пользовательское соглашение, а также как можно дольше оставайтесь на раздаче! Для того, чтобы скачать сам торрент-файл (который видит больше источников), а также для того, чтобы поблагодарить релизера, вам необходимо зарегистрироваться. Если регистрироваться лень - вы можете также попробовать скачать релиз по нашим партнерским ссылкам ниже. Кроме того, зарегистрированным пользователям не показывается всплывающая реклама при скачивании.

[underverse.su].t37540.torrent
Трекер: Зарегистрирован   [ 24.03.2014 12:00 ]  

Статус: проверено (by Бишеп at 24.03.2014 12:03)
Поблагодарили: пока никто не поблагодарил...
Тип торрента: публичный - доступные источники с открытых трекеров: 
Размер: 440 MB (занимает 0,1 DVDR, для записи нужно 1 болванка DVDR/RW)
 
 
Похожие темы
Форум Тема Автор Торрент Отв. Посл. сооб.
Музыкальные DVD (Electronic) Jean Michel Jare - Aero (2004) [DVD-Audio, 5.1 DTS, 5.1 Dolby Digital (2.0-совместимый даунмикс)] 8ad_R060d
9 | 0

0 | 3079

33

19.03.2014 14:24

Зарубежная Pop Музыка (Electronic, Pop) Marian Hill - ACT ONE (The Complete Collection) (2017) [MP3, 320 kbps CBR] Darkferse
2 | 0

1 | 1327

7

31.05.2017 13:55

Зарубежная Pop Музыка (Electronic, House, Dance, Pop) Madonna - Bitch I'm Madonna (The Remixes) (2015) [MP3, 320 kbps] 90ytr90
3 | 0

0 | 785

2

08.11.2016 07:41

Зарубежная Pop Музыка (Electronic, Synth-pop) a-ha - Cast In Steel [Vinyl Rip] (2015) [MP3, 320 kbps] 90ytr90
6 | 0

0 | 858

2

06.11.2016 12:26

Зарубежная Pop Музыка (Electronic, Pop, Dance) The Knocks - 55 (2016) [MP3, 320 kbps] 90ytr90
1 | 0

0 | 728

3

06.11.2016 10:41

Зарубежная Pop Музыка (Electronic Rock, Pop) Porcelain Black - Mannequin Factory (2015) [MP3, 320 kbps] 90ytr90
2 | 0

0 | 1316

11

11.03.2015 20:43

Зарубежная Pop Музыка (Electronic, Indie Pop) Sia - The Spotify Sessions [EP] (2017) [MP3, 320 kbps CBR] 90ytr90
21 | 4

0 | 668

6

08.04.2018 07:08

Зарубежная Pop Музыка (Electronic, House, Techno) Moby - Go-the very best of Moby (Japan) (2006) [MP3, 320 kbps CBR] 90ytr90
5 | 0

0 | 845

9

08.04.2018 10:44

Зарубежная Pop Музыка (Electronic, Dance, Alternative, Pop) Tracey Thorn - Record (2018) [MP3, 320 kbps CBR] 90ytr90
14 | 7

0 | 571

5

08.04.2018 13:05

Зарубежная Pop Музыка (Electronic, Synthpop) a-ha - MTV Unplugged: Summer Solstice (2017) [MP3, 320 kbps CBR] 90ytr90
13 | 5

0 | 762

8

08.04.2018 14:22


Яндекс.Метрика powered by Sphinx


В Н И М А Н И Е
Сайт не распространяет и не хранит электронные версии произведений, а лишь бесплатно и без коммерческой выгоды (не требуя взамен платы,
SMS и т.д.) предоставляет доступ к создаваемому пользователями каталогу ссылок на торрент-файлы, которые содержат только списки хеш-сумм.
Убедительная просьба с жалобами обращаться напрямую к пользователю, разместившему торрент файл.

Вверх