Loading...
Error

Настоящий детектив / True Detective / Сезон: 1 / Серии: 1-8 из 8 (Кэри Фукунага) [2014, драма, криминал, HDTV 1080i] DVO (Кубик в Кубе) + MVO (Novamedia) + Original

Статистика раздачи
Размер:  45,83 GB   |    Зарегистрирован:  4 года 7 месяцев   |    Скачан:  36 раз
Сидов:  1  |  3 KB/s  ]   Личеров:  0  |  0 KB/s  ]

* - сиды/пиры с внешних источников

   
 
Автор Сообщение

uzi2009 Пол:Муж

13-Авг-2014 06:48

Настоящий детектив / True Detective

Год выпуска: 2014
Страна: США
Жанр: драма, криминал
Продолжительность: ~ 01:00:00

Перевод: Профессиональный (двухголосый закадровый) Кубик в Кубе
Перевод 2: Профессиональный (многоголосый закадровый) Novamedia
Режиссёр: Кэри Фукунага

В ролях: Мэттью МакКонахи, Вуди Харрельсон, Брюс Эллиотт, Тори Киттлз, Дэвид Стивен Митчелл и др.

Описание:
Главные герои – два детектива. В 2012 году в штате Луизиана повторно открывается дело о серийном убийстве в 1995 году. Детективы познакомились 17 лет назад, когда началось расследование, и с тех пор вместе охотились за киллером. Повествование будет вестись как в наше время, так и откатится назад, в середину девяностых.

Сэмпл: http://multi-up.com/981102

Качество: HDTV 1080i
Контейнер: MKV

Видео: MPEG2 Video 1920x1080 29.97fps 16:9
Аудио: Русский / Кубик в Кубе Dolby AC3 48000Hz 6ch 384kbp
Аудио 2: Русский / Novamedia Dolby AC3 48000Hz stereo 384kbps
Аудио 3: English / Original Dolby AC3 48000Hz stereo 384kbps
Субтитры: отсутствуют
01 - Огромная яркая темнота / The Long Bright Dark 12 января 2014
02 - Галлюцинации / Seeing Things 19 января 2014
03 - Закрытая комната / The Locked Room 26 января 2014
04 - Кто туда пойдет / Who Goes There 9 февраля 2014
05 - Тайная судьба всей жизни / The Secret Fate of All Life 16 февраля 2014
06 - Дома с привидениями / Haunted Houses 23 февраля 2014
07 - После того, как ты ушел / After You've Gone 2 марта 2014
08 - Форма и пустота / Form and Void 9 марта 2014
eneral
Unique ID : 187302973038458443301925797780121834762 (0x8CE93D8DC98B4847A1C022CED375D50A)
Complete name : D:\Настоящий детектив (2014) HDTV 1080\Настоящий детектив - 02 серия.mkv
Format : Matroska
Format version : Version 4 / Version 2
File size : 5.89 GiB
Duration : 58mn 58s
Overall bit rate mode : Variable
Overall bit rate : 14.3 Mbps
Encoded date : UTC 2014-03-17 16:04:34
Writing application : mkvmerge v6.1.0 ('Old Devil') built on Mar 4 2013 09:10:42
Writing library : libebml v1.3.0 + libmatroska v1.4.0

Video
ID : 1
Format : MPEG Video
Format version : Version 2
Format profile : Main@High
Format settings, BVOP : No
Format settings, Matrix : Default
Codec ID : V_MPEG2
Codec ID/Info : MPEG 1 or 2 Video
Duration : 58mn 58s
Bit rate mode : Variable
Bit rate : 12.9 Mbps
Maximum bit rate : 38.8 Mbps
Width : 1 920 pixels
Height : 1 080 pixels
Display aspect ratio : 16:9
Frame rate mode : Constant
Frame rate : 29.970 fps
Color space : YUV
Chroma subsampling : 4:2:0
Bit depth : 8 bits
Scan type : Interlaced
Scan order : Top Field First
Compression mode : Lossy
Bits/(Pixel*Frame) : 0.207
Time code of first frame : 00:00:00;00
Time code source : Group of pictures header
Stream size : 5.30 GiB (90%)
Default : Yes
Forced : No

Audio #1
ID : 2
Format : AC-3
Format/Info : Audio Coding 3
Mode extension : CM (complete main)
Format settings, Endianness : Big
Codec ID : A_AC3
Duration : 58mn 58s
Bit rate mode : Constant
Bit rate : 384 Kbps
Channel count : 6 channels
Channel positions : Front: L C R, Side: L R, LFE
Sampling rate : 48.0 KHz
Bit depth : 16 bits
Compression mode : Lossy
Stream size : 162 MiB (3%)
Title : Кубик в Кубе
Language : Russian
Default : Yes
Forced : No

Audio #2
ID : 3
Format : AC-3
Format/Info : Audio Coding 3
Mode extension : CM (complete main)
Format settings, Endianness : Big
Codec ID : A_AC3
Duration : 58mn 58s
Bit rate mode : Constant
Bit rate : 384 Kbps
Channel count : 2 channels
Channel positions : Front: L R
Sampling rate : 48.0 KHz
Bit depth : 16 bits
Compression mode : Lossy
Stream size : 162 MiB (3%)
Title : Amedia
Language : Russian
Default : No
Forced : No

Audio #3
ID : 4
Format : AC-3
Format/Info : Audio Coding 3
Mode extension : CM (complete main)
Format settings, Endianness : Big
Codec ID : A_AC3
Duration : 58mn 58s
Bit rate mode : Constant
Bit rate : 384 Kbps
Channel count : 2 channels
Channel positions : Front: L R
Sampling rate : 48.0 KHz
Bit depth : 16 bits
Compression mode : Lossy
Stream size : 162 MiB (3%)
Title : Original
Language : English
Default : No
Forced : No
pic pic pic pic pic

Этот торрент недоступен для скачивания без регистрации, однако доступен по публичной magnet-ссылке (источники с публичных трекеров). Перед использованием ссылки прочтите, пожалуйста Пользовательское соглашение, а также как можно дольше оставайтесь на раздаче! Для того, чтобы скачать сам торрент-файл (который видит больше источников), а также для того, чтобы поблагодарить релизера, вам необходимо зарегистрироваться. Если регистрироваться лень - вы можете также попробовать скачать релиз по нашим партнерским ссылкам ниже. Кроме того, зарегистрированным пользователям не показывается всплывающая реклама при скачивании.

[underverse.su].t42676.torrent
Трекер: Зарегистрирован   [ 13.08.2014 06:48 ]  

Статус: проверено (by Паукан at 27.08.2014 12:37)
Поблагодарили: 2 человека
Тип торрента: публичный - доступные источники с открытых трекеров: 
Размер: 45,83 GB (занимает 10,47 DVDR, для записи нужно 11 болванок DVDR/RW)
 
 
Похожие темы
Форум Тема Автор Торрент Отв. Посл. сооб.
Зарубежное кино HQ Настоящий детектив / True Detective / Сезон: 1 / Серии: 1-8 (8) (Кэри Фукунага / Cary Fukunaga) [2014 г., детектив, криминал, драма, BDRip] MVO (Amedia) HQ Underverse HQ Underverse
13 | 1

0 | 9200

78

29.05.2014 21:31

Зарубежные сериалы Настоящий детектив / True Detective / Сезон: 1 / Серии: 1-8 (Кэри Фукунага) [2014 г., драма, криминал, HDTVRip] MVO + Original garry
58 | 4

3 | 11586

117

26.02.2019 11:54

Личности Настоящий Путин (Анастасия Каримова) [2012 г., документальный, биография, криминал, SatRip] ARI71
1 | 0

0 | 388

21

01.08.2018 13:39

Зарубежные сериалы [BD / Remux / BDRip / WEB-DL / HDTV 1080/720р] Настоящий детектив / True detective / Сезон: 1 / Серии: 8 из 8 (Кэри Фукунага) [2014, драма, криминал, HDTV 720p] MVO (AMedia) + Original uzi2009
0 | 0

1 | 7917

43

25.03.2015 15:33

Архив (художественные фильмы) Настоящий индийский роман / Shuddh Desi Romance (Маниш Шарма / Maneesh Sharma) [2013 г., драма, мелодрама, комедия, HDRip] MVO 90ytr90
0 | 0

1 | 1662

7

24.05.2018 20:42

Архив (документальное кино высокого качества) Настоящий Шерлок Холмс / The Real Sherlock Holmes (Гари Лэнг) [2012 г., документальный, биография, история, HDTVRip 720p] VO (Кириллица) ARI71
0 | 1

1 | 645

11

21.11.2018 19:13

Закрытые релизы Настоящий детектив / True Detective / Сезон 2 (1-8 серии из 8) (Кэри Фукунага, Джастин Лин, Дэниэл Эттиэс) [2015 г., детектив, криминал, триллер, драма, HDTVRip] MVO + Original older
4 | 2

1 | 813

37

26.07.2016 12:40


Яндекс.Метрика powered by Sphinx


В Н И М А Н И Е
Сайт не распространяет и не хранит электронные версии произведений, а лишь бесплатно и без коммерческой выгоды (не требуя взамен платы,
SMS и т.д.) предоставляет доступ к создаваемому пользователями каталогу ссылок на торрент-файлы, которые содержат только списки хеш-сумм.
Убедительная просьба с жалобами обращаться напрямую к пользователю, разместившему торрент файл.

Вверх