Loading...
Error

Бой за титул чемпиона мира по версиям WBA, IBF и WBO в полутяжелом весе: Sergey Kovalev vs Jean Pascal / Сергей Ковалёв - Жан Паскаль / Первый HD [30.01.2016 г., Профессиональный бокс ,HDTV 1080i]

Статистика раздачи
Размер:  3,95 GB   |    Зарегистрирован:  3 года 1 месяц   |    Скачан:  5 раз

Полного источника не было: 2 года

Сидов:  0  |  0 KB/s  ]   Личеров:  0  |  0 KB/s  ]

* - сиды/пиры с внешних источников

   
 
Автор Сообщение

romeoexpert Пол:Муж

31-Янв-2016 10:53

Бой за титул чемпиона мира по версиям WBA, IBF и WBO в полутяжелом весе: Sergey Kovalev vs Jean Pascal / Сергей Ковалёв - Жан Паскаль


Год выпуска: 2016
Вид спорта: Профессиональный бокс
Страна: Канада Монреаль Арена: Bell Centre.
Канал: Первый HD
Описание:
В ночь с субботы на воскресенье 32-летний российский полутяжеловес Сергей Ковалёв (28-0-1, 25 KO) будет проводить очередную защиту принадлежащих ему мировых титулов по версиям WBA, IBF и WBO в Монреале против местного 33-летнего чернокожего боксёра Жана Паскаля (30-3-1, 17 KO). Это будет уже вторая официальная встреча на ринге между россиянином и канадцем.
Качество видео: HDTVRip 1080i

Продолжительность: 00:37:11
Формат: TS
Видео: AVC, 1920 x 1080 (16:9), 13900 kbps
Аудио #1: русский, профессиональный комментарий [Владимир Гендлин], MP2 2.0, 192 kbps
Аудио #2: русский, профессиональный комментарий [Владимир Гендлин], AC3 5.1, 384 kbps

Код:

Общее
Идентификатор                            : 1 (0x1)
Полное имя                               : M:\Sergey.Kovalev.vs.Jean.Pascal.30.01.16.HDTV.1080i.ts
Формат                                   : MPEG-TS
Размер файла                             : 3,95 Гбайт
Продолжительность                        : 37 м.
Режим общего битрейта                    : Переменный
Общий поток                              : 15,2 Мбит/сек

Видео
Идентификатор                            : 305 (0x131)
Идентификатор меню                       : 1 (0x1)
Формат                                   : AVC
Формат/Информация                        : Advanced Video Codec
Профиль формата                          : High@L4
Параметр CABAC формата                   : Да
Параметр ReFrames формата                : 4 кадра
Параметр GOP формата                     : M=4, N=28
Идентификатор кодека                     : 27
Продолжительность                        : 37 м.
Битрейт                                  : 13,9 Мбит/сек
Ширина                                   : 1920 пикселей
Высота                                   : 1080 пикселей
Соотношение сторон                       : 16:9
Частота кадров                           : 25,000 кадров/сек
Стандарт вещания                         : Component
Цветовое пространство                    : YUV
Субдискретизация насыщенности            : 4:2:0
Битовая глубина                          : 8 бит
Тип развёртки                            : Чересстрочная
Метод сохранения типа развёртки          : Раздельные поля
Порядок развёртки                        : Верхнее поле первое
Бит/(Пиксели*Кадры)                      : 0.268
Размер потока                            : 3,60 Гбайт (91%)
Цветовой диапазон                        : Limited
Основные цвета                           : BT.709
Характеристики трансфера                 : BT.709
Коэффициенты матрицы                     : BT.709

Аудио #1
Идентификатор                            : 405 (0x195)
Идентификатор меню                       : 1 (0x1)
Формат                                   : MPEG Audio
Версия формата                           : Version 1
Профиль формата                          : Layer 2
Идентификатор кодека                     : 3
Продолжительность                        : 37 м.
Вид битрейта                             : Постоянный
Битрейт                                  : 192 Кбит/сек
Каналы                                   : 2 канала
Частота                                  : 48,0 КГц
Метод сжатия                             : С потерями
Размер потока                            : 51,1 Мбайт (1%)
Язык                                     : Russian

Аудио #2
Идентификатор                            : 415 (0x19F)
Идентификатор меню                       : 1 (0x1)
Формат                                   : AC-3
Формат/Информация                        : Audio Coding 3
Расширение режима                        : CM (complete main)
Параметр Endianness формата              : Big
Идентификатор кодека                     : 6
Продолжительность                        : 37 м.
Вид битрейта                             : Постоянный
Битрейт                                  : 384 Кбит/сек
Каналы                                   : 6 каналов
Расположение каналов                     : Front: L C R, Side: L R, LFE
Частота                                  : 48,0 КГц
Частота кадров                           : 31,250 кадров/сек (1536 spf)
Метод сжатия                             : С потерями
Размер потока                            : 102 Мбайт (3%)
Язык                                     : Russian
picpicpicpic
Для увеличения картинки щелкните мышкой по превью

Этот торрент недоступен для скачивания без регистрации, однако доступен по публичной magnet-ссылке (источники с публичных трекеров). Перед использованием ссылки прочтите, пожалуйста Пользовательское соглашение, а также как можно дольше оставайтесь на раздаче! Для того, чтобы скачать сам торрент-файл (который видит больше источников), а также для того, чтобы поблагодарить релизера, вам необходимо зарегистрироваться. Если регистрироваться лень - вы можете также попробовать скачать релиз по нашим партнерским ссылкам ниже. Кроме того, зарегистрированным пользователям не показывается всплывающая реклама при скачивании.

[underverse.su].t62487.torrent
Трекер: Зарегистрирован   [ 31.01.2016 10:53 ]  

Статус: проверено (by makkol at 31.01.2016 11:11)
Поблагодарили: пока никто не поблагодарил...
Тип торрента: публичный - доступные источники с открытых трекеров: 
Размер: 3,95 GB (занимает 0,9 DVDR, для записи нужно 1 болванка DVDR/RW)
 
 
Похожие темы
Форум Тема Автор Торрент Отв. Посл. сооб.
Бокс Бой за титул чемпиона мира по версии WBA / Денис Лебедев - Джеймс Тони / Спорт 1 [2011 г., Бокс , SatRip] МУХА~
1 | 0

0 | 1577

2

04.11.2011 21:50

Архив (спортивное видео) Бой за титул чемпиона мира по версии WBC в супертяжёлом весе: Дэнни Гарсиа - Роберт Герреро + aндеркарт [2016 г., Профессиональный бокс, HDTV 1080i] romeoexpert
0 | 0

1 | 1195

2

25.05.2018 15:28


Яндекс.Метрика powered by Sphinx


В Н И М А Н И Е
Сайт не распространяет и не хранит электронные версии произведений, а лишь бесплатно и без коммерческой выгоды (не требуя взамен платы,
SMS и т.д.) предоставляет доступ к создаваемому пользователями каталогу ссылок на торрент-файлы, которые содержат только списки хеш-сумм.
Убедительная просьба с жалобами обращаться напрямую к пользователю, разместившему торрент файл.

Вверх