Loading...
Error

В объезд / Поехавшие / The Detour / Сезон 1 (1-10 серии из 10) (Джефф Томсич, Стив Пинк, Бреннан Шрофф) [2016 г., комедия, WEB-DL 720p] MVO (KinoView) + Original

Статистика раздачи
Размер:  6,88 GB   |    Зарегистрирован:  2 года 6 месяцев   |    Скачан:  4 раза

Полного источника не было: 1 год 3 месяца

Сидов:  0  |  0 KB/s  ]   Личеров:  0  |  0 KB/s  ]

* - сиды/пиры с внешних источников

   
 
Автор Сообщение

makkol Пол:Муж

05-Сен-2016 16:07

В объезд / Поехавшие / The Detour (Сезон 1)
«Хуже уже быть не может. Казалось бы.»


Год выпуска: 2016
Жанр: комедия
Производство: США [TBS Productions Inc.]
Режиссер: Джефф Томсич, Стив Пинк, Бреннан Шрофф
В ролях: Джейсон Джонс, Натали Зи, Эшли Герасимович, Лайам Кэрролл, Мэри Грилл, Даниэлла Пинеда, Фил Ривз, Дэрин Купер, Деджа Ди, Тейлор Ковальски, Винс Фостер, Денитра Ислер, Адам Бойер, Том Амандес

Перевод: KinoView - ex Несмертельное оружие
Сюжет фильма:
История небольшой семьи с двумя детьми, которая решила отправиться в долгое путешествие от родного дома прямиком до Флориды. Путь непростой, но герои всегда оптимистичны — они верят в себя, а их путь благоволит им. Кажется, что впереди их ждет долгая дорога, полная интересных открытий. Однако поездка оказывается не такой удачной! Вскоре положительный настрой сменяется упадническими чувствами, ведь героев начинают преследовать неудачи… одна за другой. И отбоя от них нет!

  • Мировая премьера: 11 апреля 2016


Качество видео: WEB-DL 720p

Продолжительность: 10 x ~00:22:00
Формат: MKV
Видео: MPEG-4 AVC, 1280x720 (16:9), 23.976 fps, ~3960 kbps
Аудио #1: русский, любительский многоголосый закадровый, AC3 2.0, 48 kHz, 192 kbps
Аудио #2: английский, оригинал, AC3 5.1, 48 kHz, 384 kbps
Субтитры: русские форсированные (для 4-6, 9-10 серий) вшитые отключаемые

Код:

Format                      : Matroska
Format version              : Version 2
File size                   : 716 MiB
Duration                    : 21mn 34s
Overall bit rate            : 4 636 Kbps
Movie name                  : Поехавшие / В объезд / The Detour / Сезон: 1 / Эпизод: 01 - Пилот
Encoded date                : UTC 2016-05-26 18:41:20
Writing application         : mkvmerge v5.2.1 ('A Far Off Place') built on Jan  2 2012 23:21:10
Writing library             : libebml v1.2.3 + libmatroska v1.3.0
Cover                       : Yes
Attachments                 : Cover.png

Video
ID                          : 1
Format                      : AVC
Format/Info                 : Advanced Video Codec
Format profile              : High@L3.1
Format settings, CABAC      : No
Format settings, ReFrames   : 2 frames
Muxing mode                 : Header stripping
Codec ID                    : V_MPEG4/ISO/AVC
Duration                    : 21mn 34s
Bit rate                    : 3 968 Kbps
Width                       : 1 280 pixels
Height                      : 720 pixels
Display aspect ratio        : 16:9
Frame rate mode             : Constant
Frame rate                  : 23.976 (24000/1001) fps
Color space                 : YUV
Chroma subsampling          : 4:2:0
Bit depth                   : 8 bits
Scan type                   : Progressive
Bits/(Pixel*Frame)          : 0.180
Stream size                 : 613 MiB (86%)
Title                       : Релиз от: KinoView
Language                    : English
Default                     : Yes
Forced                      : No
Color range                 : Limited
Color primaries             : BT.709
Transfer characteristics    : BT.709
Matrix coefficients         : BT.709

Audio #1
ID                          : 2
Format                      : AC-3
Format/Info                 : Audio Coding 3
Mode extension              : CM (complete main)
Format settings, Endianness : Big
Muxing mode                 : Header stripping
Codec ID                    : A_AC3
Duration                    : 21mn 34s
Bit rate mode               : Constant
Bit rate                    : 192 Kbps
Channel(s)                  : 2 channels
Channel positions           : Front: L R
Sampling rate               : 48.0 KHz
Frame rate                  : 31.250 fps (1536 spf)
Compression mode            : Lossy
Stream size                 : 29.6 MiB (4%)
Title                       : MVO (KinoView)
Language                    : Russian
Default                     : Yes
Forced                      : No

Audio #2
ID                          : 3
Format                      : AC-3
Format/Info                 : Audio Coding 3
Mode extension              : CM (complete main)
Format settings, Endianness : Big
Muxing mode                 : Header stripping
Codec ID                    : A_AC3
Duration                    : 21mn 34s
Bit rate mode               : Constant
Bit rate                    : 384 Kbps
Channel(s)                  : 6 channels
Channel positions           : Front: L C R, Side: L R, LFE
Sampling rate               : 48.0 KHz
Frame rate                  : 31.250 fps (1536 spf)
Compression mode            : Lossy
Stream size                 : 59.3 MiB (8%)
Title                       : Original
Language                    : English
Default                     : No
Forced                      : No
pic pic pic pic pic
Для увеличения картинки щелкните мышкой по превью

Этот торрент недоступен для скачивания без регистрации, однако доступен по публичной magnet-ссылке (источники с публичных трекеров). Перед использованием ссылки прочтите, пожалуйста Пользовательское соглашение, а также как можно дольше оставайтесь на раздаче! Для того, чтобы скачать сам торрент-файл (который видит больше источников), а также для того, чтобы поблагодарить релизера, вам необходимо зарегистрироваться. Если регистрироваться лень - вы можете также попробовать скачать релиз по нашим партнерским ссылкам ниже. Кроме того, зарегистрированным пользователям не показывается всплывающая реклама при скачивании.

[underverse.su].t69795.torrent
Трекер: Зарегистрирован   [ 05.09.2016 16:07 ]  

Статус: проверено (by makkol at 07.09.2016 23:38)
Поблагодарили: пока никто не поблагодарил...
Тип торрента: публичный - доступные источники с открытых трекеров: 
Размер: 6,88 GB (занимает 1,57 DVDR, для записи нужно 2 болванки DVDR/RW)
 
 

Яндекс.Метрика powered by Sphinx


В Н И М А Н И Е
Сайт не распространяет и не хранит электронные версии произведений, а лишь бесплатно и без коммерческой выгоды (не требуя взамен платы,
SMS и т.д.) предоставляет доступ к создаваемому пользователями каталогу ссылок на торрент-файлы, которые содержат только списки хеш-сумм.
Убедительная просьба с жалобами обращаться напрямую к пользователю, разместившему торрент файл.

Вверх