Loading...
Error

(Blackened Death Metal, Thrash Metal) Goatwhore - Vengeful Ascension (2017) [FLAC (Tracks+.CUE), lossless]

Статистика раздачи
Размер:  289 MB   |    Зарегистрирован:  1 год 9 месяцев   |    Скачан:  1 раз

Полного источника не было: 1 год 2 месяца

Сидов:  0  |  0 KB/s  ]   Личеров:  0  |  0 KB/s  ]

* - сиды/пиры с внешних источников

   
 
Автор Сообщение

Darkferse Пол:Жен

14-Июн-2017 07:04

Goatwhore - Vengeful Ascension

Жанр: Blackened Death Metal, Thrash Metal
Страна: USA
Год выпуска: 2017
Источник: CD
Производитель: Metal Blade Records
Аудиокодек: FLAC
Тип рипа: Tracks+.CUE
Битрейт: lossless
Продолжительность: 00:41:58

Треклист:

01. Forsaken
02. Under The Flesh, Into The Soul
03. Vengeful Ascension
04. Chaos Arcane
05. Where The Sun Is Silent
06. Drowned In Grim Rebirth
07. Abandon Indoctrination
08. Mankind Will Have No Mercy
09. Decayed Omen Reborn
10. Those Who Denied God's Will

Код:

Exact Audio Copy V1.3 from 2. September 2016

EAC extraction logfile from 13. June 2017, 16:09

Goatwhore / Vengeful Ascension

Used drive  : PLEXTOR DVDR   PX-880SA   Adapter: 1  ID: 0

Read mode               : Secure
Utilize accurate stream : Yes
Defeat audio cache      : Yes
Make use of C2 pointers : No

Read offset correction                      : 6
Overread into Lead-In and Lead-Out          : No
Fill up missing offset samples with silence : Yes
Delete leading and trailing silent blocks   : No
Null samples used in CRC calculations       : Yes
Used interface                              : Native Win32 interface for Win NT & 2000
Gap handling                                : Appended to previous track

Used output format              : User Defined Encoder
Selected bitrate                : 1024 kBit/s
Quality                         : High
Add ID3 tag                     : No
Command line compressor         : C:\Program Files (x86)\Exact Audio Copy\Flac\flac.exe
Additional command line options : -8 -e -p -V -T "ARTIST=%artist%" -T "TITLE=%title%" -T "ALBUM=%albumtitle%" -T "DATE=%year%" -T "TRACKNUMBER=%tracknr%" -T "GENRE=%genre%" -T "PERFORMER=%albuminterpret%" -T "COMPOSER=%composer%" %haslyrics%--tag-from-file=LYRICS="%lyricsfile%"%haslyrics% -T "ALBUMARTIST=%albumartist%" -T "DISCNUMBER=%cdnumber%" -T "TOTALDISCS=%totalcds%" -T "TOTALTRACKS=%numtracks%" -T "COMMENT=%comment%" %source% -o %dest%

TOC of the extracted CD

     Track |   Start  |  Length  | Start sector | End sector
    ---------------------------------------------------------
        1  |  0:00.00 |  3:40.67 |         0    |    16566
        2  |  3:40.67 |  4:33.20 |     16567    |    37061
        3  |  8:14.12 |  4:14.33 |     37062    |    56144
        4  | 12:28.45 |  3:57.31 |     56145    |    73950
        5  | 16:26.01 |  4:35.53 |     73951    |    94628
        6  | 21:01.54 |  4:14.70 |     94629    |   113748
        7  | 25:16.49 |  4:19.22 |    113749    |   133195
        8  | 29:35.71 |  3:48.20 |    133196    |   150315
        9  | 33:24.16 |  4:25.70 |    150316    |   170260
       10  | 37:50.11 |  4:08.33 |    170261    |   188893

Track  1

     Filename C:\Users\David\Desktop\Goatwhore - Vengeful Ascension\01 - Goatwhore - Forsaken.wav

     Pre-gap length  0:00:02.00

     Peak level 98.8 %
     Extraction speed 3.3 X
     Track quality 100.0 %
     Test CRC A8D7DCE4
     Copy CRC A8D7DCE4
     Track not present in AccurateRip database
     Copy OK

Track  2

     Filename C:\Users\David\Desktop\Goatwhore - Vengeful Ascension\02 - Goatwhore - Under The Flesh, Into The Soul.wav

     Peak level 98.8 %
     Extraction speed 3.8 X
     Track quality 100.0 %
     Test CRC 821DAA11
     Copy CRC 821DAA11
     Track not present in AccurateRip database
     Copy OK

Track  3

     Filename C:\Users\David\Desktop\Goatwhore - Vengeful Ascension\03 - Goatwhore - Vengeful Ascension.wav

     Peak level 98.8 %
     Extraction speed 4.1 X
     Track quality 100.0 %
     Test CRC D26CB963
     Copy CRC D26CB963
     Track not present in AccurateRip database
     Copy OK

Track  4

     Filename C:\Users\David\Desktop\Goatwhore - Vengeful Ascension\04 - Goatwhore - Chaos Arcane.wav

     Peak level 98.8 %
     Extraction speed 4.4 X
     Track quality 100.0 %
     Test CRC 5042834F
     Copy CRC 5042834F
     Track not present in AccurateRip database
     Copy OK

Track  5

     Filename C:\Users\David\Desktop\Goatwhore - Vengeful Ascension\05 - Goatwhore - Where The Sun Is Silent.wav

     Peak level 98.8 %
     Extraction speed 4.8 X
     Track quality 100.0 %
     Test CRC D82FCC26
     Copy CRC D82FCC26
     Track not present in AccurateRip database
     Copy OK

Track  6

     Filename C:\Users\David\Desktop\Goatwhore - Vengeful Ascension\06 - Goatwhore - Drowned In Grim Rebirth.wav

     Peak level 98.8 %
     Extraction speed 4.1 X
     Track quality 99.9 %
     Test CRC 7AD16B90
     Copy CRC 7AD16B90
     Track not present in AccurateRip database
     Copy OK

Track  7

     Filename C:\Users\David\Desktop\Goatwhore - Vengeful Ascension\07 - Goatwhore - Abandon Indoctrination.wav

     Peak level 98.8 %
     Extraction speed 4.3 X
     Track quality 99.9 %
     Test CRC D0712575
     Copy CRC D0712575
     Track not present in AccurateRip database
     Copy OK

Track  8

     Filename C:\Users\David\Desktop\Goatwhore - Vengeful Ascension\08 - Goatwhore - Mankind Will Have No Mercy.wav

     Peak level 98.8 %
     Extraction speed 5.5 X
     Track quality 100.0 %
     Test CRC FC7DD214
     Copy CRC FC7DD214
     Track not present in AccurateRip database
     Copy OK

Track  9

     Filename C:\Users\David\Desktop\Goatwhore - Vengeful Ascension\09 - Goatwhore - Decayed Omen Reborn.wav

     Peak level 98.8 %
     Extraction speed 4.7 X
     Track quality 99.9 %
     Test CRC 51C87992
     Copy CRC 51C87992
     Track not present in AccurateRip database
     Copy OK

Track 10

     Filename C:\Users\David\Desktop\Goatwhore - Vengeful Ascension\10 - Goatwhore - Those Who Denied God's Will.wav

     Peak level 98.8 %
     Extraction speed 6.0 X
     Track quality 100.0 %
     Test CRC 83E8D659
     Copy CRC 83E8D659
     Track not present in AccurateRip database
     Copy OK

None of the tracks are present in the AccurateRip database

No errors occurred

End of status report

---- CUETools DB Plugin V2.1.6

[CTDB TOCID: Mbn6WrE7RMiS5A9c9f84zzXr7kA-] found
Submit result: already submitted
Track | CTDB Status
  1   | (2/2) Accurately ripped
  2   | (2/2) Accurately ripped
  3   | (2/2) Accurately ripped
  4   | (2/2) Accurately ripped
  5   | (2/2) Accurately ripped
  6   | (2/2) Accurately ripped
  7   | (2/2) Accurately ripped
  8   | (2/2) Accurately ripped
  9   | (2/2) Accurately ripped
 10   | (2/2) Accurately ripped

==== Log checksum BCF367F36A943FAA9CB1C61628AA2DC0AA380DA65F7B3ACFE2FD06430B7772A0 ====

Код:

REM GENRE "Death Metal"
REM DATE 2017
REM DISCID 8609D60A
REM COMMENT "ExactAudioCopy v1.3"
PERFORMER "Goatwhore"
TITLE "Vengeful Ascension"
REM COMPOSER ""
FILE "01 - Goatwhore - Forsaken.wav" WAVE
  TRACK 01 AUDIO
    TITLE "Forsaken"
    PERFORMER "Goatwhore"
    REM COMPOSER ""
    ISRC USMBR1712455
    INDEX 01 00:00:00
FILE "02 - Goatwhore - Under The Flesh, Into The Soul.wav" WAVE
  TRACK 02 AUDIO
    TITLE "Under The Flesh, Into The Soul"
    PERFORMER "Goatwhore"
    REM COMPOSER ""
    ISRC USMBR1712455
    INDEX 01 00:00:00
FILE "03 - Goatwhore - Vengeful Ascension.wav" WAVE
  TRACK 03 AUDIO
    TITLE "Vengeful Ascension"
    PERFORMER "Goatwhore"
    REM COMPOSER ""
    ISRC USMBR1712457
    INDEX 01 00:00:00
FILE "04 - Goatwhore - Chaos Arcane.wav" WAVE
  TRACK 04 AUDIO
    TITLE "Chaos Arcane"
    PERFORMER "Goatwhore"
    REM COMPOSER ""
    ISRC USMBR1712458
    INDEX 01 00:00:00
FILE "05 - Goatwhore - Where The Sun Is Silent.wav" WAVE
  TRACK 05 AUDIO
    TITLE "Where The Sun Is Silent"
    PERFORMER "Goatwhore"
    REM COMPOSER ""
    ISRC USMBR1712458
    INDEX 01 00:00:00
FILE "06 - Goatwhore - Drowned In Grim Rebirth.wav" WAVE
  TRACK 06 AUDIO
    TITLE "Drowned In Grim Rebirth"
    PERFORMER "Goatwhore"
    REM COMPOSER ""
    ISRC USMBR1712460
    INDEX 01 00:00:00
FILE "07 - Goatwhore - Abandon Indoctrination.wav" WAVE
  TRACK 07 AUDIO
    TITLE "Abandon Indoctrination"
    PERFORMER "Goatwhore"
    REM COMPOSER ""
    ISRC USMBR1712460
    INDEX 01 00:00:00
FILE "08 - Goatwhore - Mankind Will Have No Mercy.wav" WAVE
  TRACK 08 AUDIO
    TITLE "Mankind Will Have No Mercy"
    PERFORMER "Goatwhore"
    REM COMPOSER ""
    ISRC USMBR1712462
    INDEX 01 00:00:00
FILE "09 - Goatwhore - Decayed Omen Reborn.wav" WAVE
  TRACK 09 AUDIO
    TITLE "Decayed Omen Reborn"
    PERFORMER "Goatwhore"
    REM COMPOSER ""
    ISRC USMBR1712462
    INDEX 01 00:00:00
FILE "10 - Goatwhore - Those Who Denied God's Will.wav" WAVE
  TRACK 10 AUDIO
    TITLE "Those Who Denied God's Will"
    PERFORMER "Goatwhore"
    REM COMPOSER ""
    ISRC USMBR1712463
    INDEX 01 00:00:00
metal-archives.com

Этот торрент недоступен для скачивания без регистрации, однако доступен по публичной magnet-ссылке (источники с публичных трекеров). Перед использованием ссылки прочтите, пожалуйста Пользовательское соглашение, а также как можно дольше оставайтесь на раздаче! Для того, чтобы скачать сам торрент-файл (который видит больше источников), а также для того, чтобы поблагодарить релизера, вам необходимо зарегистрироваться. Если регистрироваться лень - вы можете также попробовать скачать релиз по нашим партнерским ссылкам ниже. Кроме того, зарегистрированным пользователям не показывается всплывающая реклама при скачивании.

[underverse.me].t84162.torrent
Трекер: Зарегистрирован   [ 14.06.2017 07:04 ]  

Статус: проверено (by Бишеп at 16.06.2017 21:11)
Поблагодарили: пока никто не поблагодарил...
Тип торрента: публичный - доступные источники с открытых трекеров: 
Размер: 289 MB (занимает 0,06 DVDR, для записи нужно 1 болванка DVDR/RW)
 
 
Похожие темы
Форум Тема Автор Торрент Отв. Посл. сооб.
Зарубежный Black, Death, Heavy, Thrash, Power, Folk, Gothic Metal (Blackened Thrash Metal) Bastardizer - Dawn of Domination (2018) [MP3, 320 kbps CBR] 90ytr90
2 | 1

0 | 458

2

30.09.2018 18:47

Зарубежный Punk, Hardcore, Grunge, Alternative (Blackened Crust Punk, Dark Hardcore) Hive - Parasitic Twin (2017) [MP3, 320 kbps CBR] Darkferse
1 | 0

0 | 503

1

10.06.2017 11:32

25-Май-2018 15:49

Топик был перенесен из форума Зарубежный Metalcore, Deathcore, Mathcore,Grind, Brutal Death (Lossless) в форум Архив (HQ рок)


[cron robot]
 

Яндекс.Метрика powered by Sphinx


В Н И М А Н И Е
Сайт не распространяет и не хранит электронные версии произведений, а лишь бесплатно и без коммерческой выгоды (не требуя взамен платы,
SMS и т.д.) предоставляет доступ к создаваемому пользователями каталогу ссылок на торрент-файлы, которые содержат только списки хеш-сумм.
Убедительная просьба с жалобами обращаться напрямую к пользователю, разместившему торрент файл.

Вверх