Loading...
Error

(Thrash Metal) Harlott - Extinction (2017) [FLAC (Image+.Cue), Lossless]

Статистика раздачи
Размер:  443 MB   |    Зарегистрирован:  1 год 9 месяцев   |    Скачан:  1 раз

Полного источника не было: 8 месяцев

Сидов:  0  |  0 KB/s  ]   Личеров:  0  |  0 KB/s  ]

* - сиды/пиры с внешних источников

   
 
Автор Сообщение

Бишеп Пол:Муж

19-Июн-2017 15:20

Harlott - Extinction

Жанр: Thrash Metal
Год выпуска: 2017
Источник: CD
Производитель диска: Metal Blade Records - 3984-15512-2
Аудиокодек: FLAC
Тип рипа: Image+.CUE
Битрейт аудио: lossless
Продолжительность: 00:51:27


Треклист:
01. Extinction
02. First World Solutions
03. The Penitent
04. Whore
05. No Past
06. Conflict Revelation
07. Better Off Dead
08. Violent Conspirator
09. And Darkness Brings the Light
10. Final Weapon
11. Parasite
12. Epitaph

Код:

Exact Audio Copy V1.3 from 2. September 2016

EAC extraction logfile from 13. May 2017, 0:48

Harlott / Extinction

Used drive  : ATAPI   iHAS122   W   Adapter: 2  ID: 0

Read mode               : Secure
Utilize accurate stream : Yes
Defeat audio cache      : Yes
Make use of C2 pointers : No

Read offset correction                      : 48
Overread into Lead-In and Lead-Out          : No
Fill up missing offset samples with silence : Yes
Delete leading and trailing silent blocks   : No
Null samples used in CRC calculations       : Yes
Used interface                              : Installed external ASPI interface

Used output format              : User Defined Encoder
Selected bitrate                : 1024 kBit/s
Quality                         : High
Add ID3 tag                     : No
Command line compressor         : C:\Program Files\FLAC\flac.exe
Additional command line options : -V -8 -T "Date=%year%" -T "Genre=%genre%" -T"COMMENT=Ripped by  Ilijan - ilko" -8 -V %source%

TOC of the extracted CD

     Track |   Start  |  Length  | Start sector | End sector
    ---------------------------------------------------------
        1  |  0:00.00 |  5:52.72 |         0    |    26471   
        2  |  5:52.72 |  3:55.05 |     26472    |    44101   
        3  |  9:48.02 |  5:00.28 |     44102    |    66629   
        4  | 14:48.30 |  3:03.17 |     66630    |    80371   
        5  | 17:51.47 |  3:55.65 |     80372    |    98061   
        6  | 21:47.37 |  3:36.01 |     98062    |   114262   
        7  | 25:23.38 |  4:42.25 |    114263    |   135437   
        8  | 30:05.63 |  1:40.56 |    135438    |   142993   
        9  | 31:46.44 |  7:38.32 |    142994    |   177375   
       10  | 39:25.01 |  2:20.26 |    177376    |   187901   
       11  | 41:45.27 |  4:58.49 |    187902    |   210300   
       12  | 46:44.01 |  4:43.28 |    210301    |   231553   

Range status and errors

Selected range

     Filename D:\ilko\Harlott - Extinction.wav

     Peak level 98.9 %
     Extraction speed 3.8 X
     Range quality 100.0 %
     Test CRC 2F890A23
     Copy CRC 2F890A23
     Copy OK

No errors occurred

 
AccurateRip summary
 
Track  1  not present in database
Track  2  not present in database
Track  3  not present in database
Track  4  not present in database
Track  5  not present in database
Track  6  not present in database
Track  7  not present in database
Track  8  not present in database
Track  9  not present in database
Track 10  not present in database
Track 11  not present in database
Track 12  not present in database
 
None of the tracks are present in the AccurateRip database

End of status report

---- CUETools DB Plugin V2.1.6

[CTDB TOCID: xmMcjhcn8aJOC9euVFiyM5wkCXM-] found
Submit result: xmMcjhcn8aJOC9euVFiyM5wkCXM- has been confirmed
Track | CTDB Status
  1   | (1/1) Accurately ripped
  2   | (1/1) Accurately ripped
  3   | (1/1) Accurately ripped
  4   | (1/1) Accurately ripped
  5   | (1/1) Accurately ripped
  6   | (1/1) Accurately ripped
  7   | (1/1) Accurately ripped
  8   | (1/1) Accurately ripped
  9   | (1/1) Accurately ripped
 10   | (1/1) Accurately ripped
 11   | (1/1) Accurately ripped
 12   | (1/1) Accurately ripped

==== Log checksum EB6CA15ED4D27D73A89EC7BE4CC905A76D373A26C6EF64CEA3579BEEBE8EE717 ====

Код:

REM GENRE "Thrash Metal"
REM DATE 2017
REM DISCID A40C0F0C
REM COMMENT "ExactAudioCopy v1.3"
PERFORMER "Harlott"
TITLE "Extinction"
FILE "Harlott - Extinction.flac" WAVE
  TRACK 01 AUDIO
    TITLE "Extinction"
    PERFORMER "Harlott"
    INDEX 01 00:00:00
  TRACK 02 AUDIO
    TITLE "First World Solutions"
    PERFORMER "Harlott"
    INDEX 01 05:52:72
  TRACK 03 AUDIO
    TITLE "The Penitent"
    PERFORMER "Harlott"
    INDEX 00 09:47:49
    INDEX 01 09:48:02
  TRACK 04 AUDIO
    TITLE "Whore"
    PERFORMER "Harlott"
    INDEX 01 14:48:30
  TRACK 05 AUDIO
    TITLE "No Past"
    PERFORMER "Harlott"
    INDEX 00 17:51:00
    INDEX 01 17:51:47
  TRACK 06 AUDIO
    TITLE "Conflict Revelation"
    PERFORMER "Harlott"
    INDEX 00 21:46:29
    INDEX 01 21:47:37
  TRACK 07 AUDIO
    TITLE "Better Off Dead"
    PERFORMER "Harlott"
    INDEX 00 25:23:04
    INDEX 01 25:23:38
  TRACK 08 AUDIO
    TITLE "Violent Conspirator"
    PERFORMER "Harlott"
    INDEX 01 30:05:63
  TRACK 09 AUDIO
    TITLE "And Darkness Brings the Light"
    PERFORMER "Harlott"
    INDEX 00 31:45:70
    INDEX 01 31:46:44
  TRACK 10 AUDIO
    TITLE "Final Weapon"
    PERFORMER "Harlott"
    INDEX 01 39:25:01
  TRACK 11 AUDIO
    TITLE "Parasite"
    PERFORMER "Harlott"
    INDEX 00 41:45:24
    INDEX 01 41:45:27
  TRACK 12 AUDIO
    TITLE "Epitaph"
    PERFORMER "Harlott"
    INDEX 00 46:43:58
    INDEX 01 46:44:01

Этот торрент недоступен для скачивания без регистрации, однако доступен по публичной magnet-ссылке (источники с публичных трекеров). Перед использованием ссылки прочтите, пожалуйста Пользовательское соглашение, а также как можно дольше оставайтесь на раздаче! Для того, чтобы скачать сам торрент-файл (который видит больше источников), а также для того, чтобы поблагодарить релизера, вам необходимо зарегистрироваться. Если регистрироваться лень - вы можете также попробовать скачать релиз по нашим партнерским ссылкам ниже. Кроме того, зарегистрированным пользователям не показывается всплывающая реклама при скачивании.

[underverse.me].t84578.torrent
Трекер: Зарегистрирован   [ 19.06.2017 15:20 ]  

Статус: проверено (by Бишеп at 19.06.2017 15:21)
Поблагодарили: пока никто не поблагодарил...
Тип торрента: публичный - доступные источники с открытых трекеров: 
Размер: 443 MB (занимает 0,1 DVDR, для записи нужно 1 болванка DVDR/RW)
 
 
Похожие темы
Форум Тема Автор Торрент Отв. Посл. сооб.
Зарубежный Hard, Progressive, Soft, Melodic, AOR, Folk, Classic Rock (Thrash Metal, Heavy) Metallica - Time For One...Or 3...Or 7 [EP] (2018) [MP3, 320 kbps CBR] 90ytr90
49 | 0

0 | 1102

13

23.07.2018 19:44

Зарубежный Black, Death, Heavy, Thrash, Power, Folk, Gothic Metal (Thrash Metal) Metallica - Soundwave Festival, Brisbane (2013) [MP3, 320 kbps] Паукан
1 | 0

0 | 1990

24

01.03.2013 10:27

Зарубежный Black, Death, Heavy, Thrash, Power, Folk, Gothic Metal (Thrash Metal/Groove) Sepultura - The Mediator Between The Head And Hands Must Be The Heart - 2013 [MP3, 320 kbps] Jimmy
0 | 0

0 | 2013

8

27.10.2013 05:29

Зарубежный Black, Death, Heavy, Thrash, Power, Folk, Gothic Metal (Thrash Metal) Green Death - The Deathening (2013) [MP3, 320 kbps] Jimmy
1 | 0

0 | 1306

0

02.01.2014 08:12

Зарубежный Black, Death, Heavy, Thrash, Power, Folk, Gothic Metal (Thrash Metal) Blackrider - The Gate To The Unknown (2013) [MP3, 320 kbps] Jimmy
1 | 0

0 | 1189

2

02.01.2014 08:13

Зарубежный Black, Death, Heavy, Thrash, Power, Folk, Gothic Metal (Thrash Metal) Amok - Somewhere In The West (2013) [MP3, 320 kbps] Jimmy
1 | 0

0 | 1210

2

02.01.2014 08:14

Зарубежный Black, Death, Heavy, Thrash, Power, Folk, Gothic Metal (Thrash Metal, Death Metal, Groove Metal) Revenant Dead - Heroes Without Villains (2017) [MP3, 320 kbps CBR] Darkferse
2 | 0

0 | 832

1

18.04.2017 04:27

Зарубежный Black, Death, Heavy, Thrash, Power, Folk, Gothic Metal (Thrash Metal) Darchitect - Mechanical Healing (2017) [MP3, 320 kbps CBR] Darkferse
1 | 1

0 | 766

1

10.04.2017 03:17

Зарубежный Black, Death, Heavy, Thrash, Power, Folk, Gothic Metal (Thrash Metal, Crossover) Bound For Glory - Ironborn (2017) [MP3, 320 kbps CBR] Darkferse
1 | 0

0 | 418

2

05.01.2018 06:59

Зарубежный Black, Death, Heavy, Thrash, Power, Folk, Gothic Metal (Thrash Metal) Slate Grey - World Turns to Black (2017) [MP3, 320 kbps CBR] Darkferse
1 | 1

0 | 583

1

20.04.2017 22:04

25-Май-2018 15:49

Топик был перенесен из форума Зарубежный Heavy, Thrash, Extreme (Lossless) в форум Архив (HQ рок)


[cron robot]
 

Яндекс.Метрика powered by Sphinx


В Н И М А Н И Е
Сайт не распространяет и не хранит электронные версии произведений, а лишь бесплатно и без коммерческой выгоды (не требуя взамен платы,
SMS и т.д.) предоставляет доступ к создаваемому пользователями каталогу ссылок на торрент-файлы, которые содержат только списки хеш-сумм.
Убедительная просьба с жалобами обращаться напрямую к пользователю, разместившему торрент файл.

Вверх