Loading...
Error

(Power Metal, Heavy Metal) Sin Isomer - Burst Into Isomer (2017) [FLAC (Image+.Cue), Lossless]

Статистика раздачи
Размер:  279 MB   |    Зарегистрирован:  1 год 7 месяцев   |    Скачан:  1 раз

Полного источника не было: 1 год 7 месяцев

Сидов:  0  |  0 KB/s  ]   Личеров:  0  |  0 KB/s  ]

* - сиды/пиры с внешних источников

   
 
Автор Сообщение

Бишеп Пол:Муж

26-Июл-2017 17:53

Sin Isomer - Burst Into Isomer

Жанр: Power Metal, Heavy Metal
Год выпуска: 2017
Источник: CD
Производитель диска: King Record - KICS-3493
Аудиокодек: FLAC
Тип рипа: Image+.CUE
Битрейт аудио: lossless
Продолжительность: 00:31:41


Треклист:
01. Quiet Sky
02. The Last Spell
03. Sin
04. Future King
05. Peal Of Church Bell
06. Sediment
07. Bang Your Head

Код:

Exact Audio Copy V1.3 from 2. September 2016

EAC extraction logfile from 24. July 2017, 23:20

Sin Isomer / Burst Into Isomer

Used drive  : ATAPI   iHAS122   W   Adapter: 2  ID: 0

Read mode               : Secure
Utilize accurate stream : Yes
Defeat audio cache      : Yes
Make use of C2 pointers : No

Read offset correction                      : 48
Overread into Lead-In and Lead-Out          : No
Fill up missing offset samples with silence : Yes
Delete leading and trailing silent blocks   : No
Null samples used in CRC calculations       : Yes
Used interface                              : Installed external ASPI interface

Used output format              : User Defined Encoder
Selected bitrate                : 1024 kBit/s
Quality                         : High
Add ID3 tag                     : No
Command line compressor         : C:\Program Files\FLAC\flac.exe
Additional command line options : -V -8 -T "Date=%year%" -T "Genre=%genre%" -T"COMMENT=Ripped by  Ilijan - ilko" -8 -V %source%

TOC of the extracted CD

     Track |   Start  |  Length  | Start sector | End sector
    ---------------------------------------------------------
        1  |  0:00.00 |  3:55.08 |         0    |    17632   
        2  |  3:55.08 |  3:51.35 |     17633    |    34992   
        3  |  7:46.43 |  5:07.73 |     34993    |    58090   
        4  | 12:54.41 |  4:16.13 |     58091    |    77303   
        5  | 17:10.54 |  5:16.32 |     77304    |   101035   
        6  | 22:27.11 |  4:52.12 |    101036    |   122947   
        7  | 27:19.23 |  4:22.15 |    122948    |   142612   

Range status and errors

Selected range

     Filename D:\ilko\Sin Isomer - Burst Into Isomer.wav

     Peak level 99.2 %
     Extraction speed 3.4 X
     Range quality 100.0 %
     Test CRC EF0BC44F
     Copy CRC EF0BC44F
     Copy OK

No errors occurred

 
AccurateRip summary
 
Track  1  not present in database
Track  2  not present in database
Track  3  not present in database
Track  4  not present in database
Track  5  not present in database
Track  6  not present in database
Track  7  not present in database
 
None of the tracks are present in the AccurateRip database

End of status report

---- CUETools DB Plugin V2.1.6

[CTDB TOCID: 993cEGeQohdAXSmY4mZxMgs1zbs-] found
Submit result: 993cEGeQohdAXSmY4mZxMgs1zbs- has been confirmed
Track | CTDB Status
  1   | (2/2) Accurately ripped
  2   | (2/2) Accurately ripped
  3   | (2/2) Accurately ripped
  4   | (2/2) Accurately ripped
  5   | (2/2) Accurately ripped
  6   | (2/2) Accurately ripped
  7   | (1/2) Accurately ripped

==== Log checksum 41B0994B24350B23A0EFDB35A0CB875A24D555733971FED7FE3EB5352262F12B ====

Код:

REM GENRE "Power Metal"
REM DATE 2017
REM DISCID 57076D07
REM COMMENT "ExactAudioCopy v1.3"
PERFORMER "Sin Isomer"
TITLE "Burst Into Isomer"
FILE "Sin Isomer - Burst Into Isomer.flac" WAVE
  TRACK 01 AUDIO
    TITLE "Quiet Sky"
    PERFORMER "Sin Isomer"
    INDEX 01 00:00:00
  TRACK 02 AUDIO
    TITLE "The Last Spell"
    PERFORMER "Sin Isomer"
    INDEX 00 03:54:29
    INDEX 01 03:55:08
  TRACK 03 AUDIO
    TITLE "Sin"
    PERFORMER "Sin Isomer"
    INDEX 00 07:44:27
    INDEX 01 07:46:43
  TRACK 04 AUDIO
    TITLE "Future King"
    PERFORMER "Sin Isomer"
    INDEX 00 12:53:62
    INDEX 01 12:54:41
  TRACK 05 AUDIO
    TITLE "Peal Of Church Bell"
    PERFORMER "Sin Isomer"
    INDEX 00 17:09:38
    INDEX 01 17:10:54
  TRACK 06 AUDIO
    TITLE "Sediment"
    PERFORMER "Sin Isomer"
    INDEX 00 22:25:69
    INDEX 01 22:27:11
  TRACK 07 AUDIO
    TITLE "Bang Your Head"
    PERFORMER "Sin Isomer"
    INDEX 00 27:18:07
    INDEX 01 27:19:23

Этот торрент недоступен для скачивания без регистрации, однако доступен по публичной magnet-ссылке (источники с публичных трекеров). Перед использованием ссылки прочтите, пожалуйста Пользовательское соглашение, а также как можно дольше оставайтесь на раздаче! Для того, чтобы скачать сам торрент-файл (который видит больше источников), а также для того, чтобы поблагодарить релизера, вам необходимо зарегистрироваться. Если регистрироваться лень - вы можете также попробовать скачать релиз по нашим партнерским ссылкам ниже. Кроме того, зарегистрированным пользователям не показывается всплывающая реклама при скачивании.

[underverse.me].t86686.torrent
Трекер: Зарегистрирован   [ 26.07.2017 17:53 ]  

Статус: проверено (by Бишеп at 26.07.2017 17:54)
Поблагодарили: пока никто не поблагодарил...
Тип торрента: публичный - доступные источники с открытых трекеров: 
Размер: 279 MB (занимает 0,06 DVDR, для записи нужно 1 болванка DVDR/RW)
 
 
Похожие темы
Форум Тема Автор Торрент Отв. Посл. сооб.
Зарубежный Hard, Progressive, Soft, Melodic, AOR, Folk, Classic Rock (Power Metal) Cryonic Temple - Deliverance [Japanese Edition] (2018) [MP3, 320 kbps CBR] 90ytr90
3 | 0

0 | 230

3

26.08.2018 14:19

Зарубежный Black, Death, Heavy, Thrash, Power, Folk, Gothic Metal (Power Metal, Symphonic Metal) Megaromania - Megaromania (2013) [MP3, 320 kbps CBR] Jimmy
1 | 0

0 | 1635

4

17.03.2013 12:02

Зарубежный Black, Death, Heavy, Thrash, Power, Folk, Gothic Metal (Power Metal, Symphonic Metal, Folk Metal) To the Mountains - Struggle of the Ages (2017) [MP3, 320 kbps CBR] Darkferse
1 | 0

0 | 962

3

23.05.2017 08:34

Зарубежный Black, Death, Heavy, Thrash, Power, Folk, Gothic Metal (Power Metal) Taken - Taken (Japanese Edition) (2016) [FLAC (Image+.Cue), Lossless] Бишеп
1 | 0

0 | 737

2

07.01.2017 18:25

Зарубежный Black, Death, Heavy, Thrash, Power, Folk, Gothic Metal (Power Metal) John Melfice - Angelic Redeemer (2017) [MP3, 320 kbps CBR] Darkferse
2 | 0

0 | 607

1

15.04.2017 09:51

Зарубежный Black, Death, Heavy, Thrash, Power, Folk, Gothic Metal (Power Metal, Heavy Metal) Vulvagun - The Painful Road To Eden (2017) [MP3, 320 kbps CBR] Darkferse
1 | 0

0 | 603

1

15.04.2017 10:38

Зарубежный Black, Death, Heavy, Thrash, Power, Folk, Gothic Metal (Power Metal) Paladine - Finding Solace (2017) [MP3, 320 kbps CBR] Darkferse
1 | 0

0 | 732

1

15.04.2017 14:48

Зарубежный Black, Death, Heavy, Thrash, Power, Folk, Gothic Metal (Power Metal, Symphonic Metal) Adamantia - U.N.O: Una Nueva Odisea (2017) [MP3, 320 kbps CBR] Darkferse
2 | 0

0 | 791

2

26.04.2017 20:47

Зарубежный Black, Death, Heavy, Thrash, Power, Folk, Gothic Metal (Power Metal, Thrash Metal) Klynt - Faustbreaker (2017) [MP3, 320 kbps CBR] Darkferse
1 | 0

0 | 567

0

21.05.2017 16:08

Зарубежный Black, Death, Heavy, Thrash, Power, Folk, Gothic Metal (Power Metal) Endless Main - II (2017) [MP3, 320 kbps CBR] Darkferse
1 | 0

0 | 442

1

24.05.2017 08:19

25-Май-2018 15:49

Топик был перенесен из форума Зарубежный Heavy, Thrash, Extreme (Lossless) в форум Архив (HQ рок)


[cron robot]
 

Яндекс.Метрика powered by Sphinx


В Н И М А Н И Е
Сайт не распространяет и не хранит электронные версии произведений, а лишь бесплатно и без коммерческой выгоды (не требуя взамен платы,
SMS и т.д.) предоставляет доступ к создаваемому пользователями каталогу ссылок на торрент-файлы, которые содержат только списки хеш-сумм.
Убедительная просьба с жалобами обращаться напрямую к пользователю, разместившему торрент файл.

Вверх