Loading...
Error

(Hip-Hop) Шеff - Гипноз (2017) [FLAC (Tracks+.CUE), lossless]

Статистика раздачи
Размер:  465 MB   |    Зарегистрирован:  1 год 6 месяцев   |    Скачан:  3 раза

Полного источника не было: 13 дней

Сидов:  0  |  0 KB/s  ]   Личеров:  0  |  0 KB/s  ]

* - сиды/пиры с внешних источников

   
 
Автор Сообщение

Darkferse Пол:Жен

14-Сен-2017 20:57

Шеff - Гипноз

Жанр: Hip-Hop
Год выпуска: 2017
Источник: CD
Страна: Россия
Аудиокодек: FLAC
Тип рипа: Tracks+.CUE
Битрейт: lossless
Продолжительность: 01:02:02

Треклист:

01 - Гипноз
02 - Мой Питер! feat Купер
03 - Кто у руля?! feat N'Pans
04 - Опасно
05 - Любимая женщина feat Inna Steel
06 - Мистер Тарантино feat Белый Самолет, Shuba-Duba
07 - Russian Criminal feat Ghost
08 - Высота feat Ирина Минина
09 - Штурмовики feat Три Пули & Такер
10 - Боксёр feat Jar Bar
11 - Не забывай feat Сантьяга
12 - Дорога feat WHI, Рустaвели
13 - Осень feat А. Макаревич (Лицей)
14 - Мой Funk feat Masta BK
15 - What a wonderful life feat Lojaz
16 - Russian Criminal feat Ghost (video version)

Код:

Exact Audio Copy V1.3 from 2. September 2016

EAC extraction logfile from 2. August 2017, 20:03

Шеff / Гипноз

Used drive  : ASUS    DRW-24D5MT   Adapter: 1  ID: 0

Read mode               : Secure
Utilize accurate stream : Yes
Defeat audio cache      : Yes
Make use of C2 pointers : No

Read offset correction                      : 6
Overread into Lead-In and Lead-Out          : No
Fill up missing offset samples with silence : Yes
Delete leading and trailing silent blocks   : No
Null samples used in CRC calculations       : Yes
Used interface                              : Native Win32 interface for Win NT & 2000
Gap handling                                : Appended to previous track

Used output format              : User Defined Encoder
Selected bitrate                : 1024 kBit/s
Quality                         : High
Add ID3 tag                     : No
Command line compressor         : C:\Program Files (x86)\Exact Audio Copy\Flac\flac.exe
Additional command line options : -8 -e -p -V -T "ARTIST=%artist%" -T "TITLE=%title%" -T "ALBUM=%albumtitle%" -T "DATE=%year%" -T "TRACKNUMBER=%tracknr%" -T "GENRE=%genre%" -T "PERFORMER=%albuminterpret%" -T "COMPOSER=%composer%" %haslyrics%--tag-from-file=LYRICS="%lyricsfile%"%haslyrics% -T "ALBUMARTIST=%albumartist%" -T "DISCNUMBER=%cdnumber%" -T "TOTALDISCS=%totalcds%" -T "TOTALTRACKS=%numtracks%" -T "COMMENT=%comment%" %source% -o %dest%

TOC of the extracted CD

     Track |   Start  |  Length  | Start sector | End sector
    ---------------------------------------------------------
        1  |  0:00.00 |  3:35.27 |         0    |    16151
        2  |  3:35.27 |  4:09.11 |     16152    |    34837
        3  |  7:44.38 |  3:50.14 |     34838    |    52101
        4  | 11:34.52 |  3:52.66 |     52102    |    69567
        5  | 15:27.43 |  4:10.69 |     69568    |    88386
        6  | 19:38.37 |  3:31.31 |     88387    |   104242
        7  | 23:09.68 |  3:47.37 |    104243    |   121304
        8  | 26:57.30 |  3:47.01 |    121305    |   138330
        9  | 30:44.31 |  3:47.47 |    138331    |   155402
       10  | 34:32.03 |  3:58.30 |    155403    |   173282
       11  | 38:30.33 |  4:16.00 |    173283    |   192482
       12  | 42:46.33 |  3:46.56 |    192483    |   209488
       13  | 46:33.14 |  3:53.64 |    209489    |   227027
       14  | 50:27.03 |  3:53.27 |    227028    |   244529
       15  | 54:20.30 |  3:58.50 |    244530    |   262429
       16  | 58:19.05 |  3:42.67 |    262430    |   279146

Track  1

     Filename D:\Шеff - Гипноз (2017) [FLAC]\01 - Гипноз.wav

     Pre-gap length  0:00:02.00

     Peak level 99.9 %
     Extraction speed 1.0 X
     Track quality 100.0 %
     Test CRC DE5B64F9
     Copy CRC DE5B64F9
     Track not present in AccurateRip database
     Copy OK

Track  2

     Filename D:\Шеff - Гипноз (2017) [FLAC]\02 - Мой Питер! feat. Купер.wav

     Peak level 99.9 %
     Extraction speed 1.2 X
     Track quality 100.0 %
     Test CRC C93A4826
     Copy CRC C93A4826
     Track not present in AccurateRip database
     Copy OK

Track  3

     Filename D:\Шеff - Гипноз (2017) [FLAC]\03 - Кто у руля! feat. N`Pans.wav

     Peak level 100.0 %
     Extraction speed 1.3 X
     Track quality 100.0 %
     Test CRC D46D2080
     Copy CRC D46D2080
     Track not present in AccurateRip database
     Copy OK

Track  4

     Filename D:\Шеff - Гипноз (2017) [FLAC]\04 - Опасно.wav

     Peak level 99.9 %
     Extraction speed 1.4 X
     Track quality 100.0 %
     Test CRC E9CF6251
     Copy CRC E9CF6251
     Track not present in AccurateRip database
     Copy OK

Track  5

     Filename D:\Шеff - Гипноз (2017) [FLAC]\05 - Любимая женщина feat. Inna Steel.wav

     Peak level 99.9 %
     Extraction speed 1.5 X
     Track quality 100.0 %
     Test CRC 989F99CD
     Copy CRC 989F99CD
     Track not present in AccurateRip database
     Copy OK

Track  6

     Filename D:\Шеff - Гипноз (2017) [FLAC]\06 - Мистер Тарантино feat. Белый Самолет, Shuba-Duba.wav

     Peak level 99.9 %
     Extraction speed 1.5 X
     Track quality 100.0 %
     Test CRC 7C82FC7D
     Copy CRC 7C82FC7D
     Track not present in AccurateRip database
     Copy OK

Track  7

     Filename D:\Шеff - Гипноз (2017) [FLAC]\07 - Russian Criminal feat. Ghost.wav

     Peak level 99.9 %
     Extraction speed 1.6 X
     Track quality 100.0 %
     Test CRC 5300D43B
     Copy CRC 5300D43B
     Track not present in AccurateRip database
     Copy OK

Track  8

     Filename D:\Шеff - Гипноз (2017) [FLAC]\08 - Высота feat. Ирина Минина.wav

     Peak level 99.9 %
     Extraction speed 1.7 X
     Track quality 100.0 %
     Test CRC BC60870E
     Copy CRC BC60870E
     Track not present in AccurateRip database
     Copy OK

Track  9

     Filename D:\Шеff - Гипноз (2017) [FLAC]\09 - Штурмовики feat. Три Пули & Такер.wav

     Peak level 99.9 %
     Extraction speed 1.8 X
     Track quality 100.0 %
     Test CRC B024CFFF
     Copy CRC B024CFFF
     Track not present in AccurateRip database
     Copy OK

Track 10

     Filename D:\Шеff - Гипноз (2017) [FLAC]\10 - Боксер feat. Jar Bar.wav

     Peak level 100.0 %
     Extraction speed 1.6 X
     Track quality 99.9 %
     Test CRC CE1347B5
     Copy CRC CE1347B5
     Track not present in AccurateRip database
     Copy OK

Track 11

     Filename D:\Шеff - Гипноз (2017) [FLAC]\11 - Не забывай feat. Сантьяга.wav

     Peak level 99.9 %
     Extraction speed 1.9 X
     Track quality 100.0 %
     Test CRC 5148020D
     Copy CRC 5148020D
     Track not present in AccurateRip database
     Copy OK

Track 12

     Filename D:\Шеff - Гипноз (2017) [FLAC]\12 - Дорога... feat. WHI, Руставели.wav

     Peak level 99.9 %
     Extraction speed 1.7 X
     Track quality 99.9 %
     Test CRC FAD4D61F
     Copy CRC FAD4D61F
     Track not present in AccurateRip database
     Copy OK

Track 13

     Filename D:\Шеff - Гипноз (2017) [FLAC]\13 - Осень feat. А. Макаревич (Лицей).wav

     Peak level 99.9 %
     Extraction speed 2.0 X
     Track quality 100.0 %
     Test CRC 1E8AD273
     Copy CRC 1E8AD273
     Track not present in AccurateRip database
     Copy OK

Track 14

     Filename D:\Шеff - Гипноз (2017) [FLAC]\14 - Мой фанк feat. Masta BK.wav

     Peak level 99.9 %
     Extraction speed 1.9 X
     Track quality 99.9 %
     Test CRC 3E02C243
     Copy CRC 3E02C243
     Track not present in AccurateRip database
     Copy OK

Track 15

     Filename D:\Шеff - Гипноз (2017) [FLAC]\15 - What a wonderful life feat. Lojaz.wav

     Peak level 99.9 %
     Extraction speed 2.2 X
     Track quality 100.0 %
     Test CRC 9429BC51
     Copy CRC 9429BC51
     Track not present in AccurateRip database
     Copy OK

Track 16

     Filename D:\Шеff - Гипноз (2017) [FLAC]\16 - Russian Criminal feat. Ghost (video version).wav

     Peak level 99.9 %
     Extraction speed 2.2 X
     Track quality 100.0 %
     Test CRC E8DBEC8D
     Copy CRC E8DBEC8D
     Track not present in AccurateRip database
     Copy OK

None of the tracks are present in the AccurateRip database

No errors occurred

End of status report

---- CUETools DB Plugin V2.1.6

[CTDB TOCID: l2.vsxS1E9qshgvMVnP8I5xlzKI-] disk not present in database
Submit result: l2.vsxS1E9qshgvMVnP8I5xlzKI- has been uploaded

==== Log checksum CD77B769EDBCDAD52601C4D9738EA0180178ADCA18DF9944B69094593045FA3D ====

Код:

REM GENRE Hip-Hop
REM DATE 2017
REM DISCID E60E8910
REM COMMENT "ExactAudioCopy v1.3"
PERFORMER "Шеff"
TITLE "Гипноз"
REM COMPOSER ""
FILE "01 - Гипноз.wav" WAVE
  TRACK 01 AUDIO
    TITLE "Гипноз"
    PERFORMER "Шеff"
    REM COMPOSER ""
    INDEX 01 00:00:00
FILE "02 - Мой Питер! feat. Купер.wav" WAVE
  TRACK 02 AUDIO
    TITLE "Мой Питер! feat. Купер"
    PERFORMER "Шеff"
    REM COMPOSER ""
    INDEX 01 00:00:00
FILE "03 - Кто у руля! feat. N`Pans.wav" WAVE
  TRACK 03 AUDIO
    TITLE "Кто у руля?! feat. N`Pans"
    PERFORMER "Шеff"
    REM COMPOSER ""
    INDEX 01 00:00:00
FILE "04 - Опасно.wav" WAVE
  TRACK 04 AUDIO
    TITLE "Опасно"
    PERFORMER "Шеff"
    REM COMPOSER ""
    INDEX 01 00:00:00
FILE "05 - Любимая женщина feat. Inna Steel.wav" WAVE
  TRACK 05 AUDIO
    TITLE "Любимая женщина feat. Inna Steel"
    PERFORMER "Шеff"
    REM COMPOSER ""
    INDEX 01 00:00:00
FILE "06 - Мистер Тарантино feat. Белый Самолет, Shuba-Duba.wav" WAVE
  TRACK 06 AUDIO
    TITLE "Мистер Тарантино feat. Белый Самолет, Shuba-Duba"
    PERFORMER "Шеff"
    REM COMPOSER ""
    INDEX 01 00:00:00
FILE "07 - Russian Criminal feat. Ghost.wav" WAVE
  TRACK 07 AUDIO
    TITLE "Russian Criminal feat. Ghost"
    PERFORMER "Шеff"
    REM COMPOSER ""
    INDEX 01 00:00:00
FILE "08 - Высота feat. Ирина Минина.wav" WAVE
  TRACK 08 AUDIO
    TITLE "Высота feat. Ирина Минина"
    PERFORMER "Шеff"
    REM COMPOSER ""
    INDEX 01 00:00:00
FILE "09 - Штурмовики feat. Три Пули & Такер.wav" WAVE
  TRACK 09 AUDIO
    TITLE "Штурмовики feat. Три Пули & Такер"
    PERFORMER "Шеff"
    REM COMPOSER ""
    INDEX 01 00:00:00
FILE "10 - Боксер feat. Jar Bar.wav" WAVE
  TRACK 10 AUDIO
    TITLE "Боксер feat. Jar Bar"
    PERFORMER "Шеff"
    REM COMPOSER ""
    INDEX 01 00:00:00
FILE "11 - Не забывай feat. Сантьяга.wav" WAVE
  TRACK 11 AUDIO
    TITLE "Не забывай feat. Сантьяга"
    PERFORMER "Шеff"
    REM COMPOSER ""
    INDEX 01 00:00:00
FILE "12 - Дорога... feat. WHI, Руставели.wav" WAVE
  TRACK 12 AUDIO
    TITLE "Дорога... feat. WHI, Руставели"
    PERFORMER "Шеff"
    REM COMPOSER ""
    INDEX 01 00:00:00
FILE "13 - Осень feat. А. Макаревич (Лицей).wav" WAVE
  TRACK 13 AUDIO
    TITLE "Осень feat. А. Макаревич (Лицей)"
    PERFORMER "Шеff"
    REM COMPOSER ""
    INDEX 01 00:00:00
FILE "14 - Мой фанк feat. Masta BK.wav" WAVE
  TRACK 14 AUDIO
    TITLE "Мой фанк feat. Masta BK"
    PERFORMER "Шеff"
    REM COMPOSER ""
    INDEX 01 00:00:00
FILE "15 - What a wonderful life feat. Lojaz.wav" WAVE
  TRACK 15 AUDIO
    TITLE "What a wonderful life feat. Lojaz"
    PERFORMER "Шеff"
    REM COMPOSER ""
    INDEX 01 00:00:00
FILE "16 - Russian Criminal feat. Ghost (video version).wav" WAVE
  TRACK 16 AUDIO
    TITLE "Russian Criminal feat. Ghost (video version)"
    PERFORMER "Шеff"
    REM COMPOSER ""
    INDEX 01 00:00:00

Этот торрент недоступен для скачивания без регистрации, однако доступен по публичной magnet-ссылке (источники с публичных трекеров). Перед использованием ссылки прочтите, пожалуйста Пользовательское соглашение, а также как можно дольше оставайтесь на раздаче! Для того, чтобы скачать сам торрент-файл (который видит больше источников), а также для того, чтобы поблагодарить релизера, вам необходимо зарегистрироваться. Если регистрироваться лень - вы можете также попробовать скачать релиз по нашим партнерским ссылкам ниже. Кроме того, зарегистрированным пользователям не показывается всплывающая реклама при скачивании.

[underverse.me].t88856.torrent
Трекер: Зарегистрирован   [ 14.09.2017 20:57 ]  

Статус: проверено (by Darkferse at 14.09.2017 20:58)
Поблагодарили: пока никто не поблагодарил...
Тип торрента: публичный - доступные источники с открытых трекеров: 
Размер: 465 MB (занимает 0,1 DVDR, для записи нужно 1 болванка DVDR/RW)
 
 
Похожие темы
Форум Тема Автор Торрент Отв. Посл. сооб.
Зарубежный Rap, Hip-Hop (Hip-Hop) Grand Puba - Black From The Future (2016) [MP3, 320 kbps] ANDRAKO
2 | 0

0 | 1048

1

10.11.2016 15:53

Зарубежный Rap, Hip-Hop (Hip-Hop) Imperial & KINETIK - Adventures in Technicolour (2016) [MP3, 220-260 kbps VBR] ANDRAKO
1 | 0

0 | 678

1

10.11.2016 15:46

Зарубежный Rap, Hip-Hop (Hip-Hop) J Dilla - The Diary (2016) [MP3, 320 kbps] ANDRAKO
1 | 1

0 | 652

1

09.11.2016 12:39

Зарубежный Rap, Hip-Hop (Hip-Hop) Zion I - The Masters of Ceremony EP (2014) [MP3, 320 kbps] uzi2009
1 | 1

0 | 1318

1

17.01.2014 22:05

Зарубежный Rap, Hip-Hop (Hip-Hop) Pusha T - My Name Is My Name (2013) [MP3, 320 kbps] uzi2009
5 | 1

0 | 1650

4

17.01.2014 22:31

Зарубежный Rap, Hip-Hop (Hip-Hop) Nacho Picasso - High and Mighty (2013) [MP3, 320 kbps] uzi2009
1 | 0

0 | 1271

6

17.01.2014 23:23

Зарубежный Rap, Hip-Hop (Hip-Hop) Local-Mu12 - Everyday People (2017) [MP3, 320 kbps CBR] Darkferse
2 | 0

0 | 730

2

25.03.2017 16:11

Зарубежный Rap, Hip-Hop (Hip-Hop) Kodak Black - Painting Pictures (2017) [MP3, 320 kbps CBR] Darkferse
2 | 1

0 | 1646

1

02.04.2017 23:00

Зарубежный Rap, Hip-Hop (Hip-Hop) J Scienide - The Actual Heat (2017) [MP3, 320 kbps CBR] Darkferse
1 | 0

0 | 988

1

12.04.2017 17:18

Зарубежный Rap, Hip-Hop (Hip-Hop) Kendrick Lamar - DAMN. (2017) [MP3, 320 kbps CBR] Darkferse
163 | 6

0 | 2414

4

14.04.2017 09:51


Яндекс.Метрика powered by Sphinx


В Н И М А Н И Е
Сайт не распространяет и не хранит электронные версии произведений, а лишь бесплатно и без коммерческой выгоды (не требуя взамен платы,
SMS и т.д.) предоставляет доступ к создаваемому пользователями каталогу ссылок на торрент-файлы, которые содержат только списки хеш-сумм.
Убедительная просьба с жалобами обращаться напрямую к пользователю, разместившему торрент файл.

Вверх