Loading...
Error

(Hip-Hop, Grime) Skepta - Konnichiwa (2016) [FLAC (Tracks+.Cue), Lossless]

Статистика раздачи
Размер:  250 MB   |    Зарегистрирован:  1 год 4 месяца   |    Скачан:  1 раз

Полного источника не было: 2 месяца 19 дней

Сидов:  0  |  0 KB/s  ]   Личеров:  0  |  0 KB/s  ]

* - сиды/пиры с внешних источников

   
 
Автор Сообщение

Бишеп Пол:Муж

26-Окт-2017 14:39

Skepta - Konnichiwa

Жанр: Hip-Hop, Grime
Год выпуска:
Источник: CD
Производитель диска: Boy Better Know - BBKS004D
Аудиокодек: FLAC
Тип рипа: Tracks+.CUE
Битрейт аудио: lossless
Продолжительность: 00:44:09


Треклист:
01. Konnichiwa (3:16)
02. Lyrics (feat. Novelist) (2:36)
03. Corn On the Curb (feat. Wiley) (5:01)
04. Crime Riddim (4:36)
05. It Ain't Safe (feat. Young Lord) (3:43)
06. Ladies Hit Squad (feat. D Double E & ASAP Nast) (4:39)
07. Numbers (feat. Pharrell Williams) (3:20)
08. Man (3:34)
09. Shutdown (3:08)
10. That's Not Me (feat. Jme) (3:05)
11. Detox (feat. BBK) (2:47)
12. Text Me Back (4:24)

Код:

Exact Audio Copy V1.1 from 23. June 2015

EAC extraction logfile from 6. May 2016, 21:43

Skepta / Konnichiwa

Used drive  : HL-DT-STDVDRAM GP67EB60   Adapter: 1  ID: 1

Read mode               : Secure
Utilize accurate stream : Yes
Defeat audio cache      : Yes
Make use of C2 pointers : No

Read offset correction                      : 6
Overread into Lead-In and Lead-Out          : No
Fill up missing offset samples with silence : Yes
Delete leading and trailing silent blocks   : No
Null samples used in CRC calculations       : Yes
Used interface                              : Native Win32 interface for Win NT & 2000
Gap handling                                : Appended to previous track

Used output format              : User Defined Encoder
Selected bitrate                : 1024 kBit/s
Quality                         : High
Add ID3 tag                     : No
Command line compressor         : C:\Program Files (x86)\Exact Audio Copy\Flac\flac.exe
Additional command line options : -8 -e -V -T "ARTIST=%artist%" -T "TITLE=%title%" -T "ALBUM=%albumtitle%" -T "DATE=%year%" -T "TRACKNUMBER=%tracknr%" -T "GENRE=%genre%" -T "PERFORMER=%albuminterpret%" -T "COMPOSER=%composer%" %haslyrics%--tag-from-file=LYRICS="%lyricsfile%"%haslyrics% -T "ALBUMARTIST=%albumartist%" -T "DISCNUMBER=%cdnumber%" -T "TOTALDISCS=%totalcds%" -T "TOTALTRACKS=%numtracks%" -T "COMMENT=%comment%" %source% -o %dest%

TOC of the extracted CD

     Track |   Start  |  Length  | Start sector | End sector
    ---------------------------------------------------------
        1  |  0:00.00 |  3:17.36 |         0    |    14810   
        2  |  3:17.36 |  2:35.09 |     14811    |    26444   
        3  |  5:52.45 |  5:00.19 |     26445    |    48963   
        4  | 10:52.64 |  4:35.37 |     48964    |    69625   
        5  | 15:28.26 |  3:41.10 |     69626    |    86210   
        6  | 19:09.36 |  4:38.04 |     86211    |   107064   
        7  | 23:47.40 |  3:18.59 |    107065    |   121973   
        8  | 27:06.24 |  3:34.33 |    121974    |   138056   
        9  | 30:40.57 |  3:08.14 |    138057    |   152170   
       10  | 33:48.71 |  3:04.68 |    152171    |   166038   
       11  | 36:53.64 |  2:48.08 |    166039    |   178646   
       12  | 39:41.72 |  4:25.52 |    178647    |   198573   

Track  1

     Filename C:\rips\Konnichiwa\01 - Konnichiwa.wav

     Pre-gap length  0:00:02.00

     Peak level 74.2 %
     Extraction speed 2.5 X
     Track quality 100.0 %
     Test CRC F8D86089
     Copy CRC F8D86089
     Track not present in AccurateRip database
     Copy OK

Track  2

     Filename C:\rips\Konnichiwa\02 - Lyrics [feat. Novelist].wav

     Pre-gap length  0:00:00.69

     Peak level 76.2 %
     Extraction speed 2.6 X
     Track quality 100.0 %
     Test CRC A3698BF2
     Copy CRC A3698BF2
     Track not present in AccurateRip database
     Copy OK

Track  3

     Filename C:\rips\Konnichiwa\03 - Corn on the Curb [feat. Wiley & Chip].wav

     Pre-gap length  0:00:01.20

     Peak level 73.8 %
     Extraction speed 3.1 X
     Track quality 100.0 %
     Test CRC D0B58417
     Copy CRC D0B58417
     Track not present in AccurateRip database
     Copy OK

Track  4

     Filename C:\rips\Konnichiwa\04 - Crime Riddim.wav

     Pre-gap length  0:00:01.36

     Peak level 75.3 %
     Extraction speed 3.4 X
     Track quality 100.0 %
     Test CRC 111AA0E9
     Copy CRC 111AA0E9
     Track not present in AccurateRip database
     Copy OK

Track  5

     Filename C:\rips\Konnichiwa\05 - It Ain't Safe [feat. Young Lord].wav

     Peak level 76.0 %
     Extraction speed 3.5 X
     Track quality 100.0 %
     Test CRC 18BDED29
     Copy CRC 18BDED29
     Track not present in AccurateRip database
     Copy OK

Track  6

     Filename C:\rips\Konnichiwa\06 - Ladies Hit Squad [feat. D Double E & A$AP Nast].wav

     Pre-gap length  0:00:01.15

     Peak level 73.1 %
     Extraction speed 3.8 X
     Track quality 100.0 %
     Test CRC 61853A8E
     Copy CRC 61853A8E
     Track not present in AccurateRip database
     Copy OK

Track  7

     Filename C:\rips\Konnichiwa\07 - Numbers [feat. Pharrell Williams].wav

     Peak level 74.9 %
     Extraction speed 3.8 X
     Track quality 100.0 %
     Test CRC DC924784
     Copy CRC DC924784
     Track not present in AccurateRip database
     Copy OK

Track  8

     Filename C:\rips\Konnichiwa\08 - Man (Gang).wav

     Pre-gap length  0:00:01.16

     Peak level 75.0 %
     Extraction speed 3.5 X
     Track quality 99.9 %
     Test CRC 90A1F80C
     Copy CRC 90A1F80C
     Track not present in AccurateRip database
     Copy OK

Track  9

     Filename C:\rips\Konnichiwa\09 - Shutdown.wav

     Pre-gap length  0:00:01.18

     Peak level 76.5 %
     Extraction speed 4.2 X
     Track quality 100.0 %
     Test CRC 231895C7
     Copy CRC 231895C7
     Track not present in AccurateRip database
     Copy OK

Track 10

     Filename C:\rips\Konnichiwa\10 - That's Not Me [feat. JME].wav

     Pre-gap length  0:00:01.14

     Peak level 78.7 %
     Extraction speed 3.5 X
     Track quality 99.9 %
     Test CRC 4FDE01C0
     Copy CRC 4FDE01C0
     Track not present in AccurateRip database
     Copy OK

Track 11

     Filename C:\rips\Konnichiwa\11 - Detox [feat. BBK].wav

     Peak level 76.0 %
     Extraction speed 4.4 X
     Track quality 100.0 %
     Test CRC 008D3414
     Copy CRC 008D3414
     Track not present in AccurateRip database
     Copy OK

Track 12

     Filename C:\rips\Konnichiwa\12 - Text Me Back.wav

     Pre-gap length  0:00:00.70

     Peak level 73.6 %
     Extraction speed 4.8 X
     Track quality 100.0 %
     Test CRC 5A939544
     Copy CRC 5A939544
     Track not present in AccurateRip database
     Copy OK

None of the tracks are present in the AccurateRip database

No errors occurred

End of status report

==== Log checksum 8A9A9835F7F0192765FE64EACE8F26F3B3BD4961F6327F8E1BF01B0AF8CBD4D8 ====

Код:

REM GENRE Grime
REM DATE 2016
REM DISCID 930A570C
REM COMMENT "ExactAudioCopy v1.1"
PERFORMER "Skepta"
TITLE "Konnichiwa"
FILE "01 - Konnichiwa.wav" WAVE
  TRACK 01 AUDIO
    TITLE "Konnichiwa"
    PERFORMER "Skepta"
    ISRC GB7QY1500544
    INDEX 01 00:00:00
  TRACK 02 AUDIO
    TITLE "Lyrics [feat. Novelist]"
    PERFORMER "Skepta"
    ISRC GB7QY1500545
    INDEX 00 03:16:42
FILE "02 - Lyrics [feat. Novelist].wav" WAVE
    INDEX 01 00:00:00
  TRACK 03 AUDIO
    TITLE "Corn on the Curb [feat. Wiley & Chip]"
    PERFORMER "Skepta"
    ISRC GB7QY1500546
    INDEX 00 02:33:64
FILE "03 - Corn on the Curb [feat. Wiley & Chip].wav" WAVE
    INDEX 01 00:00:00
  TRACK 04 AUDIO
    TITLE "Crime Riddim"
    PERFORMER "Skepta"
    ISRC GB7QY1500547
    INDEX 00 04:58:58
FILE "04 - Crime Riddim.wav" WAVE
    INDEX 01 00:00:00
FILE "05 - It Ain't Safe [feat. Young Lord].wav" WAVE
  TRACK 05 AUDIO
    TITLE "It Ain't Safe [feat. Young Lord]"
    PERFORMER "Skepta"
    ISRC GBSYA1400010
    INDEX 01 00:00:00
  TRACK 06 AUDIO
    TITLE "Ladies Hit Squad [feat. D Double E & A$AP Nast]"
    PERFORMER "Skepta"
    ISRC GB7QY1500471
    INDEX 00 03:39:70
FILE "06 - Ladies Hit Squad [feat. D Double E & A$AP Nast].wav" WAVE
    INDEX 01 00:00:00
FILE "07 - Numbers [feat. Pharrell Williams].wav" WAVE
  TRACK 07 AUDIO
    TITLE "Numbers [feat. Pharrell Williams]"
    PERFORMER "Skepta"
    ISRC GB7QY1500548
    INDEX 01 00:00:00
  TRACK 08 AUDIO
    TITLE "Man (Gang)"
    PERFORMER "Skepta"
    ISRC GB7QY1500549
    INDEX 00 03:17:43
FILE "08 - Man (Gang).wav" WAVE
    INDEX 01 00:00:00
  TRACK 09 AUDIO
    TITLE "Shutdown"
    PERFORMER "Skepta"
    ISRC GB7QY1500024
    INDEX 00 03:33:15
FILE "09 - Shutdown.wav" WAVE
    INDEX 01 00:00:00
  TRACK 10 AUDIO
    TITLE "That's Not Me [feat. JME]"
    PERFORMER "Skepta"
    ISRC GBSXS1400096
    INDEX 00 03:07:00
FILE "10 - That's Not Me [feat. JME].wav" WAVE
    INDEX 01 00:00:00
FILE "11 - Detox [feat. BBK].wav" WAVE
  TRACK 11 AUDIO
    TITLE "Detox [feat. BBK]"
    PERFORMER "Skepta"
    ISRC GB7QY1500550
    INDEX 01 00:00:00
  TRACK 12 AUDIO
    TITLE "Text Me Back"
    PERFORMER "Skepta"
    ISRC GB7QY1500551
    INDEX 00 02:47:13
FILE "12 - Text Me Back.wav" WAVE
    INDEX 01 00:00:00

Этот торрент недоступен для скачивания без регистрации, однако доступен по публичной magnet-ссылке (источники с публичных трекеров). Перед использованием ссылки прочтите, пожалуйста Пользовательское соглашение, а также как можно дольше оставайтесь на раздаче! Для того, чтобы скачать сам торрент-файл (который видит больше источников), а также для того, чтобы поблагодарить релизера, вам необходимо зарегистрироваться. Если регистрироваться лень - вы можете также попробовать скачать релиз по нашим партнерским ссылкам ниже. Кроме того, зарегистрированным пользователям не показывается всплывающая реклама при скачивании.

[underverse.me].t90568.torrent
Трекер: Зарегистрирован   [ 26.10.2017 14:39 ]  

Статус: проверено (by Бишеп at 26.10.2017 14:39)
Поблагодарили: пока никто не поблагодарил...
Тип торрента: публичный - доступные источники с открытых трекеров: 
Размер: 250 MB (занимает 0,06 DVDR, для записи нужно 1 болванка DVDR/RW)
 
 
Похожие темы
Форум Тема Автор Торрент Отв. Посл. сооб.
Electro, Breakbeat, Dubstep (Hip-Hop, Electronic) Lindemann feat. Haftbefehl - Mathematik [EP] (2018) [MP3, 320 kbps CBR] 90ytr90
2 | 0

0 | 347

4

19.12.2018 16:53

Chillout, Lounge, Downtempo (Hip-Hop, Jazz, Chillout) Blazo - Discography (3 Albums, 1 Mixtape 2009-2012) [MP3, 320 kbps] WEB 8ad_R060d
2 | 0

1 | 1862

2

18.01.2014 06:56

Зарубежный Rap, Hip-Hop (Hip-Hop, Jazz, Dub) Stand High Patrol - The Shift (2017) [MP3, 320 kbps CBR] Darkferse
1 | 0

0 | 659

1

10.07.2017 17:34

Зарубежный Rap, Hip-Hop (Hip-Hop, Bay Area Rap) AG Cubano - Cash & Carry (2016) [MP3, 320 kbps] ANDRAKO
1 | 0

0 | 740

1

16.11.2016 07:53

Зарубежный Rap, Hip-Hop (Hip-Hop, Bay Area Rap) K-Loc - Moe Crime (2016) [MP3, 320 kbps] ANDRAKO
1 | 0

0 | 690

1

11.11.2016 15:06

Зарубежный Rap, Hip-Hop (Hip-Hop, Old School, Rap) Kris Kross - Gonna Make U Jump (Greatest Hits) (1998) [MP3, 320 kbps] uzi2009
1 | 0

0 | 2489

6

17.01.2014 21:56

Зарубежный Rap, Hip-Hop (Hip-Hop, Grime) Dizzee Rascal - The Fifth (2013) [MP3, 320 kbps] uzi2009
7 | 1

0 | 1374

6

17.01.2014 22:16

Зарубежный Rap, Hip-Hop (Hip-hop, Jazz Hop) Kero One - Discography (7CD 2006-2012) [MP3, 320 kbps, V2] 8ad_R060d
2 | 0

0 | 1597

2

25.03.2014 07:50

Зарубежный Rap, Hip-Hop (Hip-Hop, West Coast Rap) Quiz - Air Max 90's (2015) [MP3, 320 kbps] ANDRAKO
1 | 0

0 | 806

1

14.11.2016 09:33

Зарубежный Rap, Hip-Hop (Hip-Hop, Rap) Rick Ross - Rather You Than Me (2017) [AAC, 256 kbps VBR] Darkferse
1 | 0

0 | 706

3

05.04.2017 04:44


Яндекс.Метрика powered by Sphinx


В Н И М А Н И Е
Сайт не распространяет и не хранит электронные версии произведений, а лишь бесплатно и без коммерческой выгоды (не требуя взамен платы,
SMS и т.д.) предоставляет доступ к создаваемому пользователями каталогу ссылок на торрент-файлы, которые содержат только списки хеш-сумм.
Убедительная просьба с жалобами обращаться напрямую к пользователю, разместившему торрент файл.

Вверх