Loading...
Error

(Hip-Hop, Experimental, Downtempo, Electronic) Mura Masa - Mura Masa (2017) [FLAC (Tracks+.CUE), lossless]

Статистика раздачи
Размер:  263 MB   |    Зарегистрирован:  1 год 2 месяца   |    Скачан:  1 раз

Полного источника не было: 7 дней

Сидов:  0  |  0 KB/s  ]   Личеров:  0  |  0 KB/s  ]

* - сиды/пиры с внешних источников

   
 
Автор Сообщение

Darkferse Пол:Жен

03-Янв-2018 16:28

Mura Masa - Mura Masa

Жанр: Hip-Hop, Experimental, Downtempo, Electronic
Год выпуска: 2017
Источник: CD
Производитель: Polydor - 5762314
Аудиокодек: FLAC
Тип рипа: Tracks+.CUE
Битрейт: lossless
Продолжительность: 00:45:22

Треклист:

01. Messy Love
02. Nuggets feat. Bonzai
03. Love$ick feat. A$AP Rocky
04. 1 Night feat. Charli XCX
05. All Around The World feat. Desiigner
06. give me The ground
07. What If I Go? feat. Bonzai
08. Firefly feat. Nao
09. NOTHING ELSE! feat. Jamie Lidell
10. helpline feat. Tom Tripp
11. Second 2 None feat. Christine and the Queens
12. Who Is It Gonna B feat. A. K. Paul
13. Blu feat. Damon Albarn

Код:

Exact Audio Copy V1.3 from 2. September 2016

EAC extraction logfile from 1. January 2018, 17:48

Mura Masa / Mura Masa

Used drive  : ASUS    SDRW-08U7M-U   Adapter: 1  ID: 0

Read mode               : Secure
Utilize accurate stream : Yes
Defeat audio cache      : Yes
Make use of C2 pointers : No

Read offset correction                      : 6
Overread into Lead-In and Lead-Out          : No
Fill up missing offset samples with silence : Yes
Delete leading and trailing silent blocks   : No
Null samples used in CRC calculations       : Yes
Used interface                              : Native Win32 interface for Win NT & 2000
Gap handling                                : Appended to previous track

Used output format              : User Defined Encoder
Selected bitrate                : 1024 kBit/s
Quality                         : High
Add ID3 tag                     : No
Command line compressor         : C:\Program Files (x86)\Exact Audio Copy\Flac\flac.exe
Additional command line options : -8 -V -T "ARTIST=%artist%" -T "TITLE=%title%" -T "ALBUM=%albumtitle%" -T "DATE=%year%" -T "TRACKNUMBER=%tracknr%" -T "GENRE=%genre%" -T "PERFORMER=%albuminterpret%" -T "COMPOSER=%composer%" %haslyrics%--tag-from-file=LYRICS="%lyricsfile%"%haslyrics% -T "ALBUMARTIST=%albumartist%" -T "DISCNUMBER=%cdnumber%" -T "TOTALDISCS=%totalcds%" -T "TOTALTRACKS=%numtracks%" -T "COMMENT=%comment%" %source% -o %dest%

TOC of the extracted CD

     Track |   Start  |  Length  | Start sector | End sector
    ---------------------------------------------------------
        1  |  0:00.00 |  3:46.43 |         0    |    16992
        2  |  3:46.43 |  3:29.44 |     16993    |    32711
        3  |  7:16.12 |  3:12.12 |     32712    |    47123
        4  | 10:28.24 |  3:27.52 |     47124    |    62700
        5  | 13:56.01 |  2:44.01 |     62701    |    75001
        6  | 16:40.02 |  1:07.41 |     75002    |    80067
        7  | 17:47.43 |  3:15.35 |     80068    |    94727
        8  | 21:03.03 |  3:44.37 |     94728    |   111564
        9  | 24:47.40 |  3:26.42 |    111565    |   127056
       10  | 28:14.07 |  3:24.47 |    127057    |   142403
       11  | 31:38.54 |  4:10.48 |    142404    |   161201
       12  | 35:49.27 |  4:58.54 |    161202    |   183605
       13  | 40:48.06 |  4:34.19 |    183606    |   204174

Track  1

     Filename C:\Rips\[2017.07.14] Mura Masa - Mura Masa (FLAC)\01 Messy Love.wav

     Pre-gap length  0:00:02.00

     Peak level 98.8 %
     Extraction speed 2.5 X
     Track quality 100.0 %
     Test CRC F6ED6D3B
     Copy CRC F6ED6D3B
     Accurately ripped (confidence 2)  [69F11FDE]  (AR v2)
     Copy OK

Track  2

     Filename C:\Rips\[2017.07.14] Mura Masa - Mura Masa (FLAC)\02 Nuggets (feat. Bonzai).wav

     Peak level 98.9 %
     Extraction speed 2.7 X
     Track quality 100.0 %
     Test CRC 5D486532
     Copy CRC 5D486532
     Accurately ripped (confidence 2)  [DDEC4640]  (AR v2)
     Copy OK

Track  3

     Filename C:\Rips\[2017.07.14] Mura Masa - Mura Masa (FLAC)\03 Love$ick (feat. A$AP Rocky).wav

     Peak level 99.3 %
     Extraction speed 2.9 X
     Track quality 100.0 %
     Test CRC 9EAF26C6
     Copy CRC 9EAF26C6
     Accurately ripped (confidence 2)  [943ED5A9]  (AR v2)
     Copy OK

Track  4

     Filename C:\Rips\[2017.07.14] Mura Masa - Mura Masa (FLAC)\04 1 Night (feat. Charli XCX).wav

     Peak level 98.9 %
     Extraction speed 3.1 X
     Track quality 100.0 %
     Test CRC 1EE08754
     Copy CRC 1EE08754
     Accurately ripped (confidence 2)  [5DC28CCE]  (AR v2)
     Copy OK

Track  5

     Filename C:\Rips\[2017.07.14] Mura Masa - Mura Masa (FLAC)\05 All Around The World (feat. Desiigner).wav

     Peak level 98.8 %
     Extraction speed 2.5 X
     Track quality 99.9 %
     Test CRC 77C37D95
     Copy CRC 77C37D95
     Accurately ripped (confidence 2)  [019509B4]  (AR v2)
     Copy OK

Track  6

     Filename C:\Rips\[2017.07.14] Mura Masa - Mura Masa (FLAC)\06 give me The ground.wav

     Peak level 98.9 %
     Extraction speed 2.5 X
     Track quality 100.0 %
     Test CRC 60ECE70E
     Copy CRC 60ECE70E
     Accurately ripped (confidence 1)  [04752430]  (AR v2)
     Copy OK

Track  7

     Filename C:\Rips\[2017.07.14] Mura Masa - Mura Masa (FLAC)\07 What If I Go (feat. Bonzai).wav

     Peak level 98.9 %
     Extraction speed 3.5 X
     Track quality 100.0 %
     Test CRC 0BC9C03A
     Copy CRC 0BC9C03A
     Accurately ripped (confidence 2)  [2B1E2CD4]  (AR v2)
     Copy OK

Track  8

     Filename C:\Rips\[2017.07.14] Mura Masa - Mura Masa (FLAC)\08 Firefly (feat. Nao).wav

     Peak level 98.9 %
     Extraction speed 3.7 X
     Track quality 100.0 %
     Test CRC 20DA6D99
     Copy CRC 20DA6D99
     Accurately ripped (confidence 2)  [DDCF634B]  (AR v2)
     Copy OK

Track  9

     Filename C:\Rips\[2017.07.14] Mura Masa - Mura Masa (FLAC)\09 NOTHING ELSE! (feat. Jamie Lidell).wav

     Peak level 98.9 %
     Extraction speed 3.8 X
     Track quality 100.0 %
     Test CRC B833665E
     Copy CRC B833665E
     Accurately ripped (confidence 2)  [8F83D344]  (AR v2)
     Copy OK

Track 10

     Filename C:\Rips\[2017.07.14] Mura Masa - Mura Masa (FLAC)\10 helpline (feat. Tom Tripp).wav

     Peak level 98.8 %
     Extraction speed 4.0 X
     Track quality 100.0 %
     Test CRC D2A2FF4F
     Copy CRC D2A2FF4F
     Accurately ripped (confidence 2)  [124CEAED]  (AR v2)
     Copy OK

Track 11

     Filename C:\Rips\[2017.07.14] Mura Masa - Mura Masa (FLAC)\11 Second 2 None (feat. Christine and the Queens).wav

     Peak level 98.9 %
     Extraction speed 3.6 X
     Track quality 99.9 %
     Test CRC 5512A3F8
     Copy CRC 5512A3F8
     Accurately ripped (confidence 2)  [F3F290A1]  (AR v2)
     Copy OK

Track 12

     Filename C:\Rips\[2017.07.14] Mura Masa - Mura Masa (FLAC)\12 Who Is It Gonna B (feat. A.K. Paul).wav

     Peak level 98.8 %
     Extraction speed 4.6 X
     Track quality 100.0 %
     Test CRC 20014C5C
     Copy CRC 20014C5C
     Accurately ripped (confidence 2)  [9CE7ED03]  (AR v2)
     Copy OK

Track 13

     Filename C:\Rips\[2017.07.14] Mura Masa - Mura Masa (FLAC)\13 Blu (feat. Damon Albarn).wav

     Peak level 98.8 %
     Extraction speed 4.0 X
     Track quality 99.9 %
     Test CRC 303FB6BD
     Copy CRC 303FB6BD
     Accurately ripped (confidence 2)  [793F8E33]  (AR v2)
     Copy OK

All tracks accurately ripped

No errors occurred

End of status report

---- CUETools DB Plugin V2.1.6

[CTDB TOCID: 4ztIcF5UhoOv501kGNyjLHcxowk-] found
Submit result: 4ztIcF5UhoOv501kGNyjLHcxowk- has been confirmed
Track | CTDB Status
  1   | (47/47) Accurately ripped
  2   | (47/47) Accurately ripped
  3   | (47/47) Accurately ripped
  4   | (47/47) Accurately ripped
  5   | (47/47) Accurately ripped
  6   | (47/47) Accurately ripped
  7   | (47/47) Accurately ripped
  8   | (47/47) Accurately ripped
  9   | (47/47) Accurately ripped
 10   | (47/47) Accurately ripped
 11   | (47/47) Accurately ripped
 12   | (47/47) Accurately ripped
 13   | (47/47) Accurately ripped

==== Log checksum EC82AA2BDA664E63063C7BC05D2451E1DD4B0AE3682DC97569F41D83CF11087C ====

Код:

REM GENRE Electronic
REM DATE 2017
REM DISCID A40AA20D
REM COMMENT "ExactAudioCopy v1.3"
CATALOG 0602557623147
PERFORMER "Mura Masa"
TITLE "Mura Masa"
REM COMPOSER ""
FILE "01 Messy Love.wav" WAVE
  TRACK 01 AUDIO
    TITLE "Messy Love"
    PERFORMER "Mura Masa"
    REM COMPOSER "Alexander Crossan"
    ISRC GBUM71700570
    INDEX 01 00:00:00
FILE "02 Nuggets (feat. Bonzai).wav" WAVE
  TRACK 02 AUDIO
    TITLE "Nuggets (feat. Bonzai)"
    PERFORMER "Mura Masa"
    REM COMPOSER "Alexander Crossan, Cassia O'Reilly & Jason Silva"
    ISRC GBUM71700569
    INDEX 01 00:00:00
FILE "03 Love$ick (feat. A$AP Rocky).wav" WAVE
  TRACK 03 AUDIO
    TITLE "Love$ick (feat. A$AP Rocky)"
    PERFORMER "Mura Masa"
    REM COMPOSER "Alexander Crossan & Rakim Mayers"
    ISRC GBUM71605141
    INDEX 01 00:00:00
FILE "04 1 Night (feat. Charli XCX).wav" WAVE
  TRACK 04 AUDIO
    TITLE "1 Night (feat. Charli XCX)"
    PERFORMER "Mura Masa"
    REM COMPOSER "Alexander Crossan, Charlotte Aitchison, Piero Piccioni, Patrik Berger & Fredr..."
    ISRC GBUM71700885
    INDEX 01 00:00:00
FILE "05 All Around The World (feat. Desiigner).wav" WAVE
  TRACK 05 AUDIO
    TITLE "All Around The World (feat. Desiigner)"
    PERFORMER "Mura Masa"
    REM COMPOSER "Alexander Crossan & Sidney Selby III"
    ISRC GBUM71701364
    INDEX 01 00:00:00
FILE "06 give me The ground.wav" WAVE
  TRACK 06 AUDIO
    TITLE "give me The ground"
    PERFORMER "Mura Masa"
    REM COMPOSER "Alexander Crossan"
    ISRC GBUM71700571
    INDEX 01 00:00:00
FILE "07 What If I Go (feat. Bonzai).wav" WAVE
  TRACK 07 AUDIO
    TITLE "What If I Go? (feat. Bonzai)"
    PERFORMER "Mura Masa"
    REM COMPOSER "Alexander Crossan, Rebecca Louise Jones & Cassia O'Reilly"
    ISRC GBUM71701400
    INDEX 01 00:00:00
FILE "08 Firefly (feat. Nao).wav" WAVE
  TRACK 08 AUDIO
    TITLE "Firefly (feat. Nao)"
    PERFORMER "Mura Masa"
    REM COMPOSER "Alexander Crossan & Neo Jessica Joshua"
    ISRC GBUM71701399
    INDEX 01 00:00:00
FILE "09 NOTHING ELSE! (feat. Jamie Lidell).wav" WAVE
  TRACK 09 AUDIO
    TITLE "NOTHING ELSE! (feat. Jamie Lidell)"
    PERFORMER "Mura Masa"
    REM COMPOSER "Alexander Crossan, Jamie Lidderdale, Neo Jessica Joshua, Gian Piccioni, Mary ..."
    ISRC GBUM71701368
    INDEX 01 00:00:00
FILE "10 helpline (feat. Tom Tripp).wav" WAVE
  TRACK 10 AUDIO
    TITLE "helpline (feat. Tom Tripp)"
    PERFORMER "Mura Masa"
    REM COMPOSER "Alexander Crossan, Thomas Eghator, Christopher Bell, Dan Kempthorne, Lance Me..."
    ISRC GBUM71701396
    INDEX 01 00:00:00
FILE "11 Second 2 None (feat. Christine and the Queens).wav" WAVE
  TRACK 11 AUDIO
    TITLE "Second 2 None (feat. Christine and the Queens)"
    PERFORMER "Mura Masa"
    REM COMPOSER "Alexander Crossan & Hйloпse Letissier"
    ISRC GBUM71701268
    INDEX 01 00:00:00
FILE "12 Who Is It Gonna B (feat. A.K. Paul).wav" WAVE
  TRACK 12 AUDIO
    TITLE "Who Is It Gonna B (feat. A.K. Paul)"
    PERFORMER "Mura Masa"
    REM COMPOSER "Alexander Crossan & Anup Paul"
    ISRC GBUM71701362
    INDEX 01 00:00:00
FILE "13 Blu (feat. Damon Albarn).wav" WAVE
  TRACK 13 AUDIO
    TITLE "Blu (feat. Damon Albarn)"
    PERFORMER "Mura Masa"
    REM COMPOSER "Alexander Crossan & Damon Albarn"
    ISRC GBUM71701353
    INDEX 01 00:00:00

Этот торрент недоступен для скачивания без регистрации, однако доступен по публичной magnet-ссылке (источники с публичных трекеров). Перед использованием ссылки прочтите, пожалуйста Пользовательское соглашение, а также как можно дольше оставайтесь на раздаче! Для того, чтобы скачать сам торрент-файл (который видит больше источников), а также для того, чтобы поблагодарить релизера, вам необходимо зарегистрироваться. Если регистрироваться лень - вы можете также попробовать скачать релиз по нашим партнерским ссылкам ниже. Кроме того, зарегистрированным пользователям не показывается всплывающая реклама при скачивании.

[underverse.me].t94234.torrent
Трекер: Зарегистрирован   [ 03.01.2018 16:28 ]  

Статус: проверено (by Darkferse at 03.01.2018 16:29)
Поблагодарили: пока никто не поблагодарил...
Тип торрента: публичный - доступные источники с открытых трекеров: 
Размер: 263 MB (занимает 0,06 DVDR, для записи нужно 1 болванка DVDR/RW)
 
 
Похожие темы
Форум Тема Автор Торрент Отв. Посл. сооб.
Electro, Breakbeat, Dubstep (Hip-Hop, Electronic) Lindemann feat. Haftbefehl - Mathematik [EP] (2018) [MP3, 320 kbps CBR] 90ytr90
2 | 0

0 | 347

4

19.12.2018 16:53

Chillout, Lounge, Downtempo (Hip-Hop, Jazz, Chillout) Blazo - Discography (3 Albums, 1 Mixtape 2009-2012) [MP3, 320 kbps] WEB 8ad_R060d
2 | 0

1 | 1862

2

18.01.2014 06:56

Зарубежный Rap, Hip-Hop (Hip-Hop, Jazz, Dub) Stand High Patrol - The Shift (2017) [MP3, 320 kbps CBR] Darkferse
1 | 0

0 | 659

1

10.07.2017 17:34

Зарубежный Rap, Hip-Hop (Hip-Hop, Bay Area Rap) AG Cubano - Cash & Carry (2016) [MP3, 320 kbps] ANDRAKO
1 | 0

0 | 740

1

16.11.2016 07:53

Зарубежный Rap, Hip-Hop (Hip-Hop, Bay Area Rap) K-Loc - Moe Crime (2016) [MP3, 320 kbps] ANDRAKO
1 | 0

0 | 690

1

11.11.2016 15:06

Зарубежный Rap, Hip-Hop (Hip-Hop, Old School, Rap) Kris Kross - Gonna Make U Jump (Greatest Hits) (1998) [MP3, 320 kbps] uzi2009
1 | 0

0 | 2489

6

17.01.2014 21:56

Зарубежный Rap, Hip-Hop (Hip-Hop, Grime) Dizzee Rascal - The Fifth (2013) [MP3, 320 kbps] uzi2009
7 | 1

0 | 1374

6

17.01.2014 22:16

Зарубежный Rap, Hip-Hop (Hip-hop, Jazz Hop) Kero One - Discography (7CD 2006-2012) [MP3, 320 kbps, V2] 8ad_R060d
2 | 0

0 | 1597

2

25.03.2014 07:50

Зарубежный Rap, Hip-Hop (Hip-Hop, West Coast Rap) Quiz - Air Max 90's (2015) [MP3, 320 kbps] ANDRAKO
1 | 0

0 | 806

1

14.11.2016 09:33

Зарубежный Rap, Hip-Hop (Hip-Hop, Rap) Rick Ross - Rather You Than Me (2017) [AAC, 256 kbps VBR] Darkferse
1 | 0

0 | 706

3

05.04.2017 04:44


Яндекс.Метрика powered by Sphinx


В Н И М А Н И Е
Сайт не распространяет и не хранит электронные версии произведений, а лишь бесплатно и без коммерческой выгоды (не требуя взамен платы,
SMS и т.д.) предоставляет доступ к создаваемому пользователями каталогу ссылок на торрент-файлы, которые содержат только списки хеш-сумм.
Убедительная просьба с жалобами обращаться напрямую к пользователю, разместившему торрент файл.

Вверх