Loading...
Error

(Rock, Experimental) The MatriXX - Здравствуй (2017) [FLAC (Image+.Cue), Lossless]

Статистика раздачи
Размер:  443 MB   |    Зарегистрирован:  1 год 1 месяц   |    Скачан:  3 раза

Полного источника не было: 8 месяцев

Сидов:  0  |  0 KB/s  ]   Личеров:  0  |  0 KB/s  ]

* - сиды/пиры с внешних источников

   
 
Автор Сообщение

Бишеп Пол:Муж

16-Фев-2018 10:39

The MatriXX - Здравствуй

Жанр: Rock, Experimental
Год выпуска: 2017
Источник: CD
Производитель диска: Soyuz Music - SZCD 9458-17
Аудиокодек: FLAC
Тип рипа: Image+.CUE
Битрейт аудио: lossless
Продолжительность: 00:58:41


Треклист:
01. Звезда
02. Дружок
03. Дурачок
04. From Hell
05. Умереть за любовь
06. Чума и праздник
07. Tango para el dinero
08. Готика МР
09. Синие цветы
10. Нет, мама
11. С.Н.
12. С.С.
13. Guten Morgen
14. Здравствуй
15. Послушайте!

Код:

Exact Audio Copy V1.3 from 2. September 2016

Отчёт EAC об извлечении, выполненном 11. декабря 2017, 22:53

The MatriXX / Здравствуй

Дисковод: HL-DT-STDVDRAM GUD0N   Adapter: 1  ID: 0

Режим чтения                 : Достоверность
Использование точного потока : Да
Отключение кэша аудио        : Да
Использование указателей C2  : Нет

Коррекция смещения при чтении                     : 102
Способность читать области Lead-in и Lead-out     : Нет
Заполнение пропущенных сэмплов тишиной            : Да
Удаление блоков с тишиной в начале и конце        : Нет
При вычислениях CRC использовались нулевые сэмплы : Да
Интерфейс                                         : Встроенный Win32-интерфейс для Win NT/2000

Выходной формат          : Пользовательский кодировщик
Выбранный битрейт        : 128 kBit/s
Качество                 : Высокий
Добавление ID3-тега      : Нет
Утилита сжатия           : C:\Program Files (x86)\Exact Audio Copy\Flac\flac.exe
Дополнительные параметры : -V -8 -T "Date=%year%" -T "Genre=%genre%" %source%

TOC извлечённого CD

     Трек |   Старт  | Длительность | Начальный сектор | Конечный сектор
    ---------------------------------------------------------------------
       1  |  0:00.00 |    4:51.37   |           0      |      21861     
       2  |  4:51.37 |    3:48.53   |       21862      |      39014     
       3  |  8:40.15 |    3:23.10   |       39015      |      54249     
       4  | 12:03.25 |    2:52.54   |       54250      |      67203     
       5  | 14:56.04 |    5:38.27   |       67204      |      92580     
       6  | 20:34.31 |    3:59.57   |       92581      |     110562     
       7  | 24:34.13 |    2:49.01   |      110563      |     123238     
       8  | 27:23.14 |    3:32.22   |      123239      |     139160     
       9  | 30:55.36 |    3:08.61   |      139161      |     153321     
      10  | 34:04.22 |    4:37.49   |      153322      |     174145     
      11  | 38:41.71 |    3:46.70   |      174146      |     191165     
      12  | 42:28.66 |    2:41.44   |      191166      |     203284     
      13  | 45:10.35 |    3:55.34   |      203285      |     220943     
      14  | 49:05.69 |    5:11.04   |      220944      |     244272     
      15  | 54:16.73 |    4:24.00   |      244273      |     264072     

Характеристики диапазона извлечения и сообщения об ошибках

Выбранный диапазон

     Имя файла D:\Music\The MatriXX\2017.11.17 - Здравствуй\The MatriXX - Здравствуй.wav

     Пиковый уровень 100.0 %
     Скорость извлечения 2.1 X
     Качество диапазона 100.0 %
     CRC теста 578CB13A
     CRC копии 578CB13A
     Копирование... OK

Ошибок не произошло

Конец отчёта

---- CUETools DB Plugin V2.1.6

[CTDB TOCID: DrWBPbORyx5hX6CVQsm4pkKaDBc-] found
Submit result: DrWBPbORyx5hX6CVQsm4pkKaDBc- has been confirmed
Track | CTDB Status
  1   | (1/1) Accurately ripped
  2   | (1/1) Accurately ripped
  3   | (1/1) Accurately ripped
  4   | (1/1) Accurately ripped
  5   | (1/1) Accurately ripped
  6   | (1/1) Accurately ripped
  7   | (1/1) Accurately ripped
  8   | (1/1) Accurately ripped
  9   | (1/1) Accurately ripped
 10   | (1/1) Accurately ripped
 11   | (1/1) Accurately ripped
 12   | (1/1) Accurately ripped
 13   | (1/1) Accurately ripped
 14   | (1/1) Accurately ripped
 15   | (1/1) Accurately ripped

==== Контрольная сумма отчёта B057FA490F95DD499ED0106F00D05A65B32E4632861F300137E8DDC0D5753F3D ====

Код:

REM GENRE Rock
REM DATE 2017
REM DISCID D90DC00F
REM COMMENT "ExactAudioCopy v1.3"
PERFORMER "The MatriXX"
TITLE "Здравствуй"
REM COMPOSER "Глеб Самойлов"
FILE "The MatriXX - Здравствуй.flac" WAVE
  TRACK 01 AUDIO
    TITLE "Звезда"
    PERFORMER "The MatriXX"
    REM COMPOSER "Глеб Самойлов"
    INDEX 01 00:00:00
  TRACK 02 AUDIO
    TITLE "Дружок"
    PERFORMER "The MatriXX"
    REM COMPOSER "Глеб Самойлов"
    INDEX 01 04:51:37
  TRACK 03 AUDIO
    TITLE "Дурачок"
    PERFORMER "The MatriXX"
    REM COMPOSER "Глеб Самойлов"
    INDEX 01 08:40:15
  TRACK 04 AUDIO
    TITLE "From Hell"
    PERFORMER "The MatriXX"
    REM COMPOSER "Глеб Самойлов"
    INDEX 01 12:03:25
  TRACK 05 AUDIO
    TITLE "Умереть за Любовь"
    PERFORMER "The MatriXX"
    REM COMPOSER "Глеб Самойлов"
    INDEX 01 14:56:04
  TRACK 06 AUDIO
    TITLE "Чума и Праздник"
    PERFORMER "The MatriXX"
    REM COMPOSER "Глеб Самойлов"
    INDEX 01 20:34:31
  TRACK 07 AUDIO
    TITLE "Tango para el dinero"
    PERFORMER "The MatriXX"
    REM COMPOSER "Глеб Самойлов"
    INDEX 01 24:34:13
  TRACK 08 AUDIO
    TITLE "Готика МР"
    PERFORMER "The MatriXX"
    REM COMPOSER "Глеб Самойлов"
    INDEX 01 27:23:14
  TRACK 09 AUDIO
    TITLE "Синие Цветы"
    PERFORMER "The MatriXX"
    REM COMPOSER "Глеб Самойлов"
    INDEX 01 30:55:36
  TRACK 10 AUDIO
    TITLE "Нет, Мама"
    PERFORMER "The MatriXX"
    REM COMPOSER "Глеб Самойлов"
    INDEX 01 34:04:22
  TRACK 11 AUDIO
    TITLE "С.Н."
    PERFORMER "The MatriXX"
    REM COMPOSER "Глеб Самойлов"
    INDEX 01 38:41:71
  TRACK 12 AUDIO
    TITLE "С.С."
    PERFORMER "The MatriXX"
    REM COMPOSER "Глеб Самойлов"
    INDEX 01 42:28:66
  TRACK 13 AUDIO
    TITLE "Guten Morgen"
    PERFORMER "The MatriXX"
    REM COMPOSER "Глеб Самойлов"
    INDEX 01 45:10:35
  TRACK 14 AUDIO
    TITLE "Здравствуй"
    PERFORMER "The MatriXX"
    REM COMPOSER "Глеб Самойлов"
    INDEX 01 49:05:69
  TRACK 15 AUDIO
    TITLE "Послушайте!"
    PERFORMER "The MatriXX"
    REM COMPOSER "Глеб Самойлов"
    INDEX 01 54:16:73

Discogs

Этот торрент недоступен для скачивания без регистрации, однако доступен по публичной magnet-ссылке (источники с публичных трекеров). Перед использованием ссылки прочтите, пожалуйста Пользовательское соглашение, а также как можно дольше оставайтесь на раздаче! Для того, чтобы скачать сам торрент-файл (который видит больше источников), а также для того, чтобы поблагодарить релизера, вам необходимо зарегистрироваться. Если регистрироваться лень - вы можете также попробовать скачать релиз по нашим партнерским ссылкам ниже. Кроме того, зарегистрированным пользователям не показывается всплывающая реклама при скачивании.

[underverse.me].t96614.torrent
Трекер: Зарегистрирован   [ 16.02.2018 10:39 ]  

Статус: проверено (by Бишеп at 16.02.2018 10:39)
Поблагодарили: пока никто не поблагодарил...
Тип торрента: публичный - доступные источники с открытых трекеров: 
Размер: 443 MB (занимает 0,1 DVDR, для записи нужно 1 болванка DVDR/RW)
 
 
Похожие темы
Форум Тема Автор Торрент Отв. Посл. сооб.
Зарубежный Hard, Progressive, Melodic, AOR (Lossless) (Rock, Experimental, Ambient) Rain Tree Crow - Rain Tree Crow (2006) [FLAC (Image+.CUE), Lossless] Бишеп
6 | 2

1 | 1700

4

05.11.2013 14:55

Зарубежный Hard, Progressive, Melodic, AOR (Lossless) (Rock, Experimental, Ambient ) David Bowie - "Heroes" (1991) [FLAC (Tracks+.CUE), Lossless] Бишеп
3 | 1

0 | 769

1

06.02.2015 10:51

Зарубежный Hard, Progressive, Melodic, AOR (Lossless) (Rock, Experimental) Robert Fripp & The League Of The Crafty Guitarists - Show of Hands (1991) [FLAC (Image+.Cue), Lossless] Бишеп
3 | 1

0 | 720

2

03.03.2017 15:05

21-Ноя-2018 20:07

Топик был перенесен из форума Отечественный Hard, Progressive, Melodic, AOR (Lossless) в форум Архив (HQ рок)


[cron robot]
 

Яндекс.Метрика powered by Sphinx


В Н И М А Н И Е
Сайт не распространяет и не хранит электронные версии произведений, а лишь бесплатно и без коммерческой выгоды (не требуя взамен платы,
SMS и т.д.) предоставляет доступ к создаваемому пользователями каталогу ссылок на торрент-файлы, которые содержат только списки хеш-сумм.
Убедительная просьба с жалобами обращаться напрямую к пользователю, разместившему торрент файл.

Вверх