Loading...
Error

(Rock) Creedence Clearwater Revival - Willy And The Poor Boys (1987) [FLAC (Image+.Cue), Lossless]

Статистика раздачи
Размер:  232 MB   |    Зарегистрирован:  1 год 1 месяц   |    Скачан:  0 раз

Полного источника не было: 9 месяцев

Сидов:  0  |  0 KB/s  ]   Личеров:  0  |  0 KB/s  ]

* - сиды/пиры с внешних источников

   
 
Автор Сообщение

Бишеп Пол:Муж

23-Фев-2018 16:35

Creedence Clearwater Revival - Willy And The Poor Boys

Жанр: Rock
Год выпуска: 1987
Источник: CD
Производитель диска: Fantasy - CDFE 504
Аудиокодек: FLAC
Тип рипа: Image+.CUE
Битрейт аудио: lossless
Продолжительность: 00:34:56


Треклист:
01. Down On The Corner 2:48
02. It Came Out Of The Sky 2:57
03. Cotton Fields 2:57
04. Poorboy Shuffle 2:16
05. Feelin' Blue 5:16
06. Fortunate Son 2:22
07. Don't Look Now 2:12
08. The Midnight Special 4:15
09. Side O' The Road 3:25
10. Effigy 6:29

Код:

Exact Audio Copy V1.3 from 2. September 2016

EAC extraction logfile from 5. January 2018, 17:08

Creedence Clearwater Revival / Willy And The Poor Boys (CDFE 504)

Used drive  : PLEXTOR DVDR   PX-891SA   Adapter: 1  ID: 0

Read mode               : Secure
Utilize accurate stream : Yes
Defeat audio cache      : Yes
Make use of C2 pointers : No

Read offset correction                      : 6
Overread into Lead-In and Lead-Out          : No
Fill up missing offset samples with silence : Yes
Delete leading and trailing silent blocks   : No
Null samples used in CRC calculations       : Yes
Used interface                              : Native Win32 interface for Win NT & 2000

Used output format              : User Defined Encoder
Selected bitrate                : 768 kBit/s
Quality                         : High
Add ID3 tag                     : No
Command line compressor         : C:\Program Files (x86)\Exact Audio Copy\Flac\flac.exe
Additional command line options : -V -8 -T "Genre=%genre%" -T "Artist=%artist%" -T "Title=%title%" -T "Album=%albumtitle%" -T "Date=%year%" -T "Tracknumber=%tracknr%" -T "Comment=%comment%" %source%

TOC of the extracted CD

     Track |   Start  |  Length  | Start sector | End sector
    ---------------------------------------------------------
        1  |  0:00.00 |  2:48.00 |         0    |    12599   
        2  |  2:48.00 |  2:57.00 |     12600    |    25874   
        3  |  5:45.00 |  2:57.27 |     25875    |    39176   
        4  |  8:42.27 |  2:16.05 |     39177    |    49381   
        5  | 10:58.32 |  5:15.48 |     49382    |    73054   
        6  | 16:14.05 |  2:21.42 |     73055    |    83671   
        7  | 18:35.47 |  2:11.58 |     83672    |    93554   
        8  | 20:47.30 |  4:14.52 |     93555    |   112656   
        9  | 25:02.07 |  3:25.10 |    112657    |   128041   
       10  | 28:27.17 |  6:28.70 |    128042    |   157211   

Range status and errors

Selected range

     Filename H:\dafnaplus\CCR\1969 - Willy And The Poor Boys\Creedence Clearwater Revival - Willy And The Poor Boys (CDFE 504).wav

     Peak level 66.6 %
     Extraction speed 5.8 X
     Range quality 99.9 %
     Test CRC 8CF2AA0B
     Copy CRC 8CF2AA0B
     Copy OK

No errors occurred

 
AccurateRip summary
 
Track  1  accurately ripped (confidence 6)  [EA40A0B6]  (AR v2)
Track  2  accurately ripped (confidence 6)  [DB73A8AC]  (AR v2)
Track  3  accurately ripped (confidence 6)  [0D2145A7]  (AR v2)
Track  4  accurately ripped (confidence 6)  [D5364905]  (AR v2)
Track  5  accurately ripped (confidence 6)  [10B1E85E]  (AR v2)
Track  6  accurately ripped (confidence 6)  [0470FCF4]  (AR v2)
Track  7  accurately ripped (confidence 6)  [315AE77C]  (AR v2)
Track  8  accurately ripped (confidence 6)  [8B2B2769]  (AR v2)
Track  9  accurately ripped (confidence 6)  [25CD405E]  (AR v2)
Track 10  accurately ripped (confidence 6)  [9EA7EAAB]  (AR v2)
 
All tracks accurately ripped

End of status report

---- CUETools DB Plugin V2.1.6

[CTDB TOCID: kYaeonMd7RPEWkem9roZSFFw5BU-] found
Submit result: already submitted
Track | CTDB Status
  1   | (16/16) Accurately ripped
  2   | (16/16) Accurately ripped
  3   | (16/16) Accurately ripped
  4   | (16/16) Accurately ripped
  5   | (16/16) Accurately ripped
  6   | (12/16) Accurately ripped, or (4/16) differs in 318 samples @00:32:08-00:32:09,00:32:21,00:32:73-00:32:74,00:34:14-00:34:15,00:34:54,00:34:66-00:34:67
  7   | (16/16) Accurately ripped
  8   | (16/16) Accurately ripped
  9   | (16/16) Accurately ripped
 10   | (16/16) Accurately ripped

==== Log checksum 52FC32BFF0E3EBB0A16795157BF97FE332AFB32C73B84C5B11BB52F7BEFC6351 ====

Код:

REM GENRE Rock
REM DATE 1987
REM DISCID 7A08300A
REM COMMENT "ExactAudioCopy v1.3"
PERFORMER "Creedence Clearwater Revival"
TITLE "Willy And The Poor Boys (CDFE 504)"
REM COMPOSER ""
FILE "Creedence Clearwater Revival - Willy And The Poor Boys (CDFE 504).flac" WAVE
  TRACK 01 AUDIO
    TITLE "Down  On The Corner"
    PERFORMER "Creedence Clearwater Revival"
    REM COMPOSER ""
    INDEX 01 00:00:00
  TRACK 02 AUDIO
    TITLE "It Came Out Of The Sky"
    PERFORMER "Creedence Clearwater Revival"
    REM COMPOSER ""
    INDEX 00 02:44:07
    INDEX 01 02:48:00
  TRACK 03 AUDIO
    TITLE "Cotton Fields"
    PERFORMER "Creedence Clearwater Revival"
    REM COMPOSER ""
    INDEX 00 05:42:05
    INDEX 01 05:45:00
  TRACK 04 AUDIO
    TITLE "Poorboy Shuffle"
    PERFORMER "Creedence Clearwater Revival"
    REM COMPOSER ""
    INDEX 00 08:39:67
    INDEX 01 08:42:27
  TRACK 05 AUDIO
    TITLE "Feelin' Blue"
    PERFORMER "Creedence Clearwater Revival"
    REM COMPOSER ""
    INDEX 01 10:58:32
  TRACK 06 AUDIO
    TITLE "Fortunate Son"
    PERFORMER "Creedence Clearwater Revival"
    REM COMPOSER ""
    INDEX 00 16:11:55
    INDEX 01 16:14:05
  TRACK 07 AUDIO
    TITLE "Don't Look Now"
    PERFORMER "Creedence Clearwater Revival"
    REM COMPOSER ""
    INDEX 00 18:33:27
    INDEX 01 18:35:47
  TRACK 08 AUDIO
    TITLE "The Midnight Special"
    PERFORMER "Creedence Clearwater Revival"
    REM COMPOSER ""
    INDEX 00 20:45:02
    INDEX 01 20:47:30
  TRACK 09 AUDIO
    TITLE "Side O' The Road"
    PERFORMER "Creedence Clearwater Revival"
    REM COMPOSER ""
    INDEX 00 24:58:27
    INDEX 01 25:02:07
  TRACK 10 AUDIO
    TITLE "Effigy"
    PERFORMER "Creedence Clearwater Revival"
    REM COMPOSER ""
    INDEX 00 28:24:02
    INDEX 01 28:27:17

Этот торрент недоступен для скачивания без регистрации, однако доступен по публичной magnet-ссылке (источники с публичных трекеров). Перед использованием ссылки прочтите, пожалуйста Пользовательское соглашение, а также как можно дольше оставайтесь на раздаче! Для того, чтобы скачать сам торрент-файл (который видит больше источников), а также для того, чтобы поблагодарить релизера, вам необходимо зарегистрироваться. Если регистрироваться лень - вы можете также попробовать скачать релиз по нашим партнерским ссылкам ниже. Кроме того, зарегистрированным пользователям не показывается всплывающая реклама при скачивании.

[underverse.me].t97791.torrent
Трекер: Зарегистрирован   [ 23.02.2018 16:35 ]  

Статус: проверено (by Бишеп at 23.02.2018 16:36)
Поблагодарили: пока никто не поблагодарил...
Тип торрента: публичный - доступные источники с открытых трекеров: 
Размер: 232 MB (занимает 0,05 DVDR, для записи нужно 1 болванка DVDR/RW)
 
 

21-Ноя-2018 20:03

Топик был перенесен из форума Зарубежный Hard, Progressive, Melodic, AOR (Lossless) в форум Архив (HQ рок)


[cron robot]
 

Яндекс.Метрика powered by Sphinx


В Н И М А Н И Е
Сайт не распространяет и не хранит электронные версии произведений, а лишь бесплатно и без коммерческой выгоды (не требуя взамен платы,
SMS и т.д.) предоставляет доступ к создаваемому пользователями каталогу ссылок на торрент-файлы, которые содержат только списки хеш-сумм.
Убедительная просьба с жалобами обращаться напрямую к пользователю, разместившему торрент файл.

Вверх